Скачать через торрент Нортенгерское аббатство Northanger Abbey Фильм бесплатно в хорошем качестве torrent

Скачивайте на UnionPeer.org фильмы через торрент без регистрации. Новинки кино в хорошем качестве через торрент. На UnionPeer.org можно скачать через торрент фильмы 2014 и 2015 годов. Самые новые фильмы.

Скачать торрент Нортенгерское аббатство Northanger Abbey бесплатно через .torrent фильм мультфильм сериал

Если у вас наблюдаются проблемы со скриншотами, переходом по ссылками, скачиванием торрентов - проблемы в блокировщике рекламы AdBlock. #хорошегоДня!


Статистика раздачи
Размер:  1.37 GB   |    Зарегистрирован:  1 месяц 11 дней   |    .torrent скачан:  12 раз   |   
Раздают:  1  
   
Загрузка...
 
Автор Сообщение

Galfimbul

avatar Galfimbul


Нортенгерское аббатство / Northanger Abbey
Страна: Великобритания, США, Ирландия
Жанр: драма
Год выпуска: 2007
Продолжительность: 01:32:29
Перевод: Профессиональный (многоголосый закадровый)
Субтитры: нетРежиссер: Джон Джонс / Jon JonesВ ролях: Фелисити Джонс, Джей Джей Филд, Кэри Маллиган, Катрин Уолкер, Лиам Каннингэм, Сильвестра Ле Тузель, Десмонд Баррит, Уильям Бек, Хью О’Конор, Джеральдин ДжеймсОписание: Дочь мелкопоместных дворян, Кэтрин Морланд, едет со своей теткой на водный курорт в Бат, где знакомится с Генри Тилни, сыном генерала Тилни, слывущего богатым человеком. Но генерал, азартный игрок, как становится ясно позднее, давно промотал состояние умершей при загадочных обстоятельствах жены. В Бате его неверно информировали, что Кэтрин — перспективная невеста, и он приглашает ее в свое поместье, чтобы выгодно женить сына. Представьте себе его разочарование, когда он узнает, что родители Кэтрин бедны. Но Генри и Кэтрин полюбили друг друга…Релиз от: Сэмпл: http://multi-up.com/1179057Качество видео: HDRip
Формат видео: AVI

Видео: XviD, 704x400 (16:9), 25.000 fps, 1 730 Kbps (0.246 bit/pixel)
Аудио: AC-3, 48.0 KHz, 6 ch, 384 Kbps, CBR - русский
ОбщееПолное имя : D:\Раздачи\Northanger.Abbey.2007.HDRip.aviФормат : AVIФормат/Информация : Audio Video InterleaveРазмер файла : 1,37 ГбайтПродолжительность : 1 ч. 32 м.Общий поток : 2124 Кбит/секПрограмма кодирования : VirtualDubMod 1.5.10.3 | www.virtualdub-fr.org || (build 2550/release)Библиотека кодирования : VirtualDubMod build 2550/release

ВидеоИдентификатор : 0Формат : MPEG-4 VisualПрофиль формата : Advanced Simple@L5Параметр BVOP формата : 1Параметр QPel формата : НетПараметр GMC формата : Без точки переходаПараметр матрицы формата : ВыборочнаяИдентификатор кодека : XVIDИдентификатор кодека/Подсказка : XviDПродолжительность : 1 ч. 32 м.Битрейт : 1730 Кбит/секШирина : 704 пикселяВысота : 400 пикселейСоотношение сторон : 16:9Частота кадров : 25,000 кадров/секЦветовое пространство : YUVСубдискретизация насыщенности : 4:2:0Битовая глубина : 8 битТип развёртки : ПрогрессивнаяМетод сжатия : С потерямиБит/(Пиксели*Кадры) : 0.246Размер потока : 1,12 Гбайт (81%)Библиотека кодирования : XviD 73

АудиоИдентификатор : 1Формат : AC-3Формат/Информация : Audio Coding 3Расширение режима : CM (complete main)Параметр Endianness формата : BigИдентификатор кодека : 2000Продолжительность : 1 ч. 32 м.Вид битрейта : ПостоянныйБитрейт : 384 Кбит/секКаналы : 6 каналовРасположение каналов : Front: L C R, Side: L R, LFEЧастота : 48,0 КГцЧастота кадров : 31,250 кадров/сек (1536 spf)Метод сжатия : С потерямиРазмер потока : 254 Мбайт (18%)Выравнивание : Разделение по промежуткамПродолжительность промежутка : 40 мс. (1,00 видеокадр)Время предзагрузки промежутка : 500 мс.


Трекер:  [ 09-Дек-2017 13:01 ]

  

Скачать .torrent

Размер .torrent файла 14 KB


Размер: 1.37 GB
Хэш (hash) релиза: 95b203211b946adb0715175ae4ed1b74e33f1828
Подписка на обновления:

Торренты, похожие на Нортенгерское аббатство Northanger Abbey скачать торрент

Форум Название Автор Размер S L Добавлен
Зарубежные фильмы до 2016 ·· Нортенгерское аббатство / Northanger Abbey (Джон Джонс / Jon Jones) [2006, драма, мелодрама, DVDRip] MVO Galfimbul 779751424744 MB 0 0 1317738113

17:21

4-Окт-11

Зарубежные фильмы до 2016 ·· Нортенгерское аббатство / Northanger Abbey (Джиль Фостер / Giles Foster) [1986 г., экранизация классики, мелодрама, DVDRip] Ziki 15630356481.46 GB 0 0 1290622471

21:14

24-Ноя-10

Еще никто не оставлял запись к записи скачать торрент Нортенгерское аббатство Northanger Abbey . Будь первым!

!Обратная связь