Скачать через торрент Под деревом Under the Tree Фильм бесплатно в хорошем качестве torrent

Скачивайте на UnionPeer.org фильмы через торрент без регистрации. Новинки кино в хорошем качестве через торрент. На UnionPeer.org можно скачать через торрент фильмы 2014 и 2015 годов. Самые новые фильмы.

Скачать торрент Под деревом Under the Tree бесплатно через .torrent фильм мультфильм сериал

Статистика раздачи
Размер:  1.38 GB   |    Зарегистрирован:  7 месяцев   |    .torrent скачан:  94 раза   |   
Раздают:  1  
   
загрузка...
 
Автор Сообщение

Galfimbul

avatar Galfimbul


Под деревом / Undir trénu
Год выпуска: 2017
Страна: Исландия
Жанр: драма, черная комедия
Продолжительность: 01:28:53Перевод: любительский (двухголосый закадровый) - /SNK-TV/
Субтитры: Русские (Полные) - /M.Васильев/Режиссёр: Хафштайн Гуннар Сигурдссон / Hafsteinn Gunnar Sigurðsson
В ролях: Стейнтор Хроар Стейнторссон, Эдда Бьёргвинсдоттир, Сигюрдюр Сигюрйоунссон, Торстейнн Бахман, Сельма Бьёднсдоуттир, Лара Йоханна Йонсдоттир, Доура ЙоуханнсдоуттирОписание: Застукав своего мужа Атли за просмотром порно, Агнес выгоняет его из дома и не желает, чтобы он виделся с их дочерью. Атли переселяется к своим родителям, которые затеяли спор с соседями из-за красивого и большого дерева, растущего прямо на границе их участков. Пока Атли борется за право видеться с дочерью, спор этот накаляется и переходит все рамки — имущество приходит в негодность, таинственным образом исчезают домашние животные, повсюду устанавливаются камеры и даже поговаривают, будто видели соседа с бензопилой...
Скачать сэмпл

Перевод: Михаил Васильев
Озвучили и все остальное: SNK-TVКачество: HDRip (Under the Tree.mp4)
Формат: AVI
Видео кодек: Xvid
Аудио кодек: AC3
Видео: Xvid 720x304 24fps 1827kbps 0.348 Bits/(Pixel*Frame)
Аудио Rus: Dolby AC3 48000Hz stereo 192kbps [SNK-TV]
Аудио Isl: Dolby AC3 48000Hz stereo 192kbps [Оригинал]
Субтитры: softsub (SRT)
Реклама: отсутствует
Исландия выдвинула фильм на Оскар в категории "лучший иностранный фильм".
Второй самый кассовый фильм в Исландии в 2017 году.
Номинации: Венецианские горизонты - лучший фильм.
General
Complete name : W:\Торка\Reliz\Under the Tree\Under.the.Tree.HDRip.SNK-TV.avi
Format : AVI
Format/Info : Audio Video Interleave
File size : 1.38 GiB
Duration : 1h 28mn
Overall bit rate : 2 226 Kbps
Movie name : Под Деревом / Under the Tree / Undir trenu 2017
Director : M.Васильев | SNK-TV
Writing application : VirtualDubModRus 1.5.10.2 (build 2542/release)
Writing library : VirtualDubMod build 2542/release

Video
ID : 0
Format : MPEG-4 Visual
Format profile : Advanced Simple@L5
Format settings, BVOP : 1
Format settings, QPel : No
Format settings, GMC : No warppoints
Format settings, Matrix : Default (MPEG)
Codec ID : XVID
Codec ID/Hint : XviD
Duration : 1h 28mn
Bit rate : 1 828 Kbps
Width : 720 pixels
Height : 304 pixels
Display aspect ratio : 2.35:1
Frame rate : 24.000 fps
Color space : YUV
Chroma subsampling : 4:2:0
Bit depth : 8 bits
Scan type : Progressive
Compression mode : Lossy
Bits/(Pixel*Frame) : 0.348
Stream size : 1.13 GiB (82%)
Writing library : XviD 1.2.1 (UTC 2008-12-04)

Audio #1
ID : 1
Format : AC-3
Format/Info : Audio Coding 3
Mode extension : CM (complete main)
Format settings, Endianness : Big
Codec ID : 2000
Duration : 1h 28mn
Bit rate mode : Constant
Bit rate : 192 Kbps
Channel(s) : 2 channels
Channel positions : Front: L R
Sampling rate : 48.0 KHz
Compression mode : Lossy
Stream size : 122 MiB (9%)
Alignment : Split accross interleaves
Interleave, duration : 42 ms (1.00 video frame)
Interleave, preload duration : 500 ms

Audio #2
ID : 2
Format : AC-3
Format/Info : Audio Coding 3
Mode extension : CM (complete main)
Format settings, Endianness : Big
Codec ID : 2000
Duration : 1h 28mn
Bit rate mode : Constant
Bit rate : 192 Kbps
Channel(s) : 2 channels
Channel positions : Front: L R
Sampling rate : 48.0 KHz
Compression mode : Lossy
Stream size : 122 MiB (9%)
Alignment : Split accross interleaves
Interleave, duration : 42 ms (1.00 video frame)
Interleave, preload duration : 500 ms


Трекер:  [ 10-Дек-2017 16:30 ]

  

Скачать .torrent

Размер .torrent файла 14 KB


Размер: 1.38 GB
Хэш (hash) релиза: c937b7806e09c6348ad098e55fe508c86eb14977
Подписка на обновления:

Торренты, похожие на Под деревом Under the Tree скачать торрент

Форум Название Автор Размер S L Добавлен
Зарубежные фильмы 2016-2018 (Новинки зарубежного кино) ·· Под деревом / Under the Tree / Undir trénu (Хафштайн Гуннар Сигурдссон / Hafsteinn Gunnar Sigurðsson) (2017, Исландия, драма, черная комедия, WEBRip] Galfimbul 779401216743 MB 0 0 1512912015

16:20

10-Дек-17

Еще никто не оставлял запись к записи скачать торрент Под деревом Under the Tree . Будь первым!

!Обратная связь