Скачать через торрент Вторая жизнь Уве Человек по имени Уве Фильм бесплатно в хорошем качестве torrent

Скачивайте на UnionPeer.org фильмы через торрент без регистрации. Новинки кино в хорошем качестве через торрент. На UnionPeer.org можно скачать через торрент фильмы 2014 и 2015 годов. Самые новые фильмы.

Скачать торрент Вторая жизнь Уве Человек по имени Уве бесплатно через .torrent фильм мультфильм сериал

Статистика раздачи
Размер:  2.06 GB   |    Зарегистрирован:  7 месяцев   |    .torrent скачан:  16 раз   |   
Раздают:  1  
   
загрузка...
 
Автор Сообщение

Galfimbul

avatar Galfimbul


Вторая жизнь Уве / Человек по имени Уве / En man som heter Ove

Страна: Швеция
Жанр: комедия, драма
Год выпуска: 2015
Продолжительность: 01:55:53

Перевод: Авторский (одноголосый закадровый) Юрий Сербин
Субтитры: нет
Режиссер: Ханнес Холм / Hannes Holm

В ролях: Рольф Лассгорд, Бахар Парс, Зозан Акгюн, Тобиас Альмборг, Виктор Боуе, Филип Берг, Анна-Лена Бергелин, Лассе Карлссон, Карин де Фрумерье

Описание: После смерти горячо любимой жены Уве Линдал превратился в законченного мизантропа. Старый ворчун и зануда изводит придирками всех окружающих. Малейший непорядок его жутко раздражает: брошенный окурок, криво припаркованный автомобиль, оставленный где попало велосипед, неотсортированный мусор, раскиданные в песочнице игрушки, приблудная кошка, неплотно запертые ворота, гадящий на тротуарную плитку песик. Новое поколение Уве считает легкомысленными идиотами, жизнь потеряла для него всякий смысл, он уже готов свести с ней счеты. Однако суицидальные планы Уве рушатся с появлением новых соседей. Шумное семейство вынуждает Уве снова искать общий язык с миром. Сумеет ли старик справиться со своими обидами, если его многочисленные таланты – аккуратность, обстоятельность, рукастость – будут опять востребованы? Возможно, у него даже получится начать новую жизнь...

Сэмпл: http://multi-up.com/1179373

Качество видео: HDRip (Исходник Вторая жизнь Уве.BDRip.mkv / KinoZal)
Формат видео: AVI

Видео: XviD 73, 720x304, (2,35:1), 24,000 fps, 2084 Кбит/с, 8 бит
Аудио: Русский (АС3, 6 ch (Front: L C R, Side: L R, LFE), 48,0 KHz, 448 Kbps)
ОбщееПолное имя : H:\Фильмы на трекер\Вторая жизнь Уве (комедия, драма 2015 год).aviФормат : AVIФормат/Информация : Audio Video InterleaveПрофиль формата : OpenDMLРазмер файла : 2,06 ГбайтПродолжительность : 1 ч. 55 м.Общий поток : 2545 Кбит/секПрограмма кодирования : VirtualDubMod 1.5.10.3 | www.virtualdub-fr.org || (build 2550/release)Библиотека кодирования : VirtualDubMod build 2550/release

ВидеоИдентификатор : 0Формат : MPEG-4 VisualПрофиль формата : Advanced Simple@L5Параметр BVOP формата : 2Параметр QPel формата : НетПараметр GMC формата : Без точки переходаПараметр матрицы формата : ВыборочнаяИдентификатор кодека : XVIDИдентификатор кодека/Подсказка : XviDПродолжительность : 1 ч. 55 м.Битрейт : 2084 Кбит/секШирина : 720 пикселейВысота : 304 пикселяСоотношение сторон : 2,35:1Частота кадров : 24,000 кадра/секЦветовое пространство : YUVСубдискретизация насыщенности : 4:2:0Битовая глубина : 8 битТип развёртки : ПрогрессивнаяМетод сжатия : С потерямиБит/(Пиксели*Кадры) : 0.397Размер потока : 1,69 Гбайт (82%)Библиотека кодирования : XviD 73

АудиоИдентификатор : 1Формат : AC-3Формат/Информация : Audio Coding 3Расширение режима : CM (complete main)Параметр Endianness формата : BigИдентификатор кодека : 2000Продолжительность : 1 ч. 55 м.Вид битрейта : ПостоянныйБитрейт : 448 Кбит/секКаналы : 6 каналовРасположение каналов : Front: L C R, Side: L R, LFEЧастота : 48,0 КГцЧастота кадров : 31,250 кадров/сек (1536 spf)Метод сжатия : С потерямиРазмер потока : 371 Мбайт (18%)Выравнивание : Разделение по промежуткамПродолжительность промежутка : 42 мс. (1,00 видеокадр)Время предзагрузки промежутка : 500 мс.


Трекер:  [ 10-Дек-2017 17:30 ]

  

Скачать .torrent

Размер .torrent файла 10 KB


Размер: 2.06 GB
Хэш (hash) релиза: 5f8b56729c10ae26cf31680fbfc3d8b2d48e184e
Подписка на обновления:

Еще никто не оставлял запись к записи скачать торрент Вторая жизнь Уве Человек по имени Уве . Будь первым!

!Обратная связь