Скачать через торрент Займемся любовью Lets Make Love Фильм бесплатно в хорошем качестве torrent

Скачивайте на UnionPeer.org фильмы через торрент без регистрации. Новинки кино в хорошем качестве через торрент. На UnionPeer.org можно скачать через торрент фильмы 2014 и 2015 годов. Самые новые фильмы.

Скачать торрент Займемся любовью Lets Make Love бесплатно через .torrent фильм мультфильм сериал

Статистика раздачи
Размер:  6.69 GB   |    Зарегистрирован:  7 месяцев   |    .torrent скачан:  15 раз   |   
Раздают:  1  
   
загрузка...
 
Автор Сообщение

Galfimbul

avatar Galfimbul


Займемся любовью / Let's Make Love

Страна: США
Жанр: мюзикл, мелодрама, комедия
Год выпуска: 1960
Продолжительность: 01:58:29

Перевод: Профессиональный (многоголосый, закадровый)
Субтитры: русские, английские
Оригинальная аудиодорожка: английская

Режиссер: Джордж Кьюкор / George Cukor

В ролях: Мэрилин Монро, Ив Монтан, Тони Рэндалл, Фрэнки Вон, Уилфрид Хайд-Уайт, Дэвид Барнс, Майкл Дэвид, Мара Линн, Дэннис Кинг мл., Джо Бессер

Описание: Миллиардер Жан-Марк Клеман — потомственный бизнесмен и привлекательный мужчина. Он умеет делать деньги и очень любит женщин. Жан-Марк привык блистать в обществе и считает, что для него нет ничего невозможного.
Получив шокирующее известие о том, что он — «гений бизнеса» — станет объектом насмешек в юмористическом спектакле, Клеман решает самостоятельно разобраться с проблемой и едет в театр. Там он встречает красавицу Аманду и влюбляется в нее. Чтобы добиться расположения гордой девушки, миллиардер вынужден скрывать свое имя, выдавая себя за бедного актера — исполнителя роли Клемана в спектакле. Закручивается великолепная интрига, в центре которой оказывается герой, который должен играть самого себя.
Серьезному бизнесмену нужно научиться быть смешным, и это оказывается для него большим испытанием. Но для Клемана ведь «нет ничего невозможного». Особенно теперь, когда в сердце миллиардера-плейбоя впервые проникла настоящая, большая любовь.

Меню: есть, статичное

Тип релиза: DVD9
Контейнер: DVD-Video

Видео: NTSC 16:9 (720x480(0.826)) MPEG Video, 23,976 кадр/сек, 6844 Кбит/сек
Аудио: Russian (Dolby AC-3, 5 ch) 448 Кбит/сек, 48.0 КГц
Аудио 2: English (Dolby AC-3, 4 ch) 448 Кбит/сек, 48.0 КГц
Общее
Полное имя : Zaimemsya Lubovyu\VIDEO_TS\VTS_02_1.VOB
Формат : MPEG-PS
Размер файла : 1024 Мбайт
Продолжительность : 18 м. 7 с.
Режим общего битрейта : Переменный
Общий поток : 7897 Кбит/сек

Видео
Идентификатор : 224 (0xE0)
Формат : MPEG Video
Версия формата : Version 2
Профиль формата : Main@Main
Настройки формата : CustomMatrix / BVOP
Параметр BVOP формата : Да
Параметр матрицы формата : Выборочная
Параметр GOP формата : Variable
Продолжительность : 18 м. 7 с.
Вид битрейта : Переменный
Битрейт : 6844 Кбит/сек
Максимальный битрейт : 9800 Кбит/сек
Ширина : 720 пикселей
Высота : 480 пикселей
Соотношение сторон : 16:9
Частота кадров : 23,976 (24000/1001) кадра/сек
Стандарт вещания : Component
Цветовое пространство : YUV
Субдискретизация насыщенности : 4:2:0
Битовая глубина : 8 бит
Тип развёртки : Прогрессивная
Порядок развёртки : 2:3 Pulldown
Метод сжатия : С потерями
Бит/(Пиксели*Кадры) : 0.826
Временной код первого кадра : 00:00:00:00
Оригинал временного кода : Group of pictures header
Размер потока : 887 Мбайт (87%)
Основные цвета : BT.601 NTSC
Характеристики трансфера : BT.601
Коэффициенты матрицы : BT.601

Аудио #1
Идентификатор : 189 (0xBD)-128 (0x80)
Формат : AC-3
Формат/Информация : Audio Coding 3
Режим смешивания : DVD-Video
Продолжительность : 18 м. 7 с.
Вид битрейта : Постоянный
Битрейт : 448 Кбит/сек
Каналы : 5 каналов
Расположение каналов : Front: L C R, Side: L R
Частота : 48,0 КГц
Частота кадров : 31,250 кадров/сек (1536 SPF)
Битовая глубина : 16 бит
Метод сжатия : С потерями
Размер потока : 58,1 Мбайт (6%)
ServiceKind/String : Complete Main

Аудио #2
Идентификатор : 189 (0xBD)-129 (0x81)
Формат : AC-3
Формат/Информация : Audio Coding 3
Режим смешивания : DVD-Video
Продолжительность : 18 м. 7 с.
Вид битрейта : Постоянный
Битрейт : 448 Кбит/сек
Каналы : 4 канала
Расположение каналов : Front: L C R, Back: C
Частота : 48,0 КГц
Частота кадров : 31,250 кадров/сек (1536 SPF)
Битовая глубина : 16 бит
Метод сжатия : С потерями
Размер потока : 58,1 Мбайт (6%)
ServiceKind/String : Complete Main

Текст #1
Идентификатор : 189 (0xBD)-32 (0x20)
Формат : RLE
Формат/Информация : Run-length encoding
Режим смешивания : DVD-Video
Задержка видео : 11 с. 11 мс.

Текст #2
Идентификатор : 189 (0xBD)-33 (0x21)
Формат : RLE
Формат/Информация : Run-length encoding
Режим смешивания : DVD-Video
Продолжительность : 17 м. 43 с.
Задержка видео : 18 с. 985 мс.

Текст #3
Идентификатор : 224 (0xE0)-CC3
Формат : EIA-608
Режим смешивания, доп. информация : Muxed in Video #1
Продолжительность : 18 м. 7 с.
Вид битрейта : Постоянный
Размер потока : 0,00 байт (0%)
CaptionServiceName : CC3


Трекер:  [ 10-Дек-2017 18:01 ]

  

Скачать .torrent

Размер .torrent файла 18 KB


Размер: 6.69 GB
Хэш (hash) релиза: 869da2df16f6d23a319c530029a9194d29470451
Подписка на обновления:

Торренты, похожие на Займемся любовью Lets Make Love скачать торрент

Форум Название Автор Размер S L Добавлен
Зарубежные фильмы до 2016 ·· Займемся любовью / Let's Make Love (Джордж Кьюкор /George Cukor) [1960, США, мюзикл, мелодрама, комедия, DVDRip] DVO R5 Supportive 782694400746 MB 0 0 1364809172

12:39

1-Апр-13

Еще никто не оставлял запись к записи скачать торрент Займемся любовью Lets Make Love . Будь первым!

!Обратная связь