Скачать через торрент Убить за 68 68 Kill Фильм бесплатно в хорошем качестве torrent

Скачивайте на UnionPeer.org фильмы через торрент без регистрации. Новинки кино в хорошем качестве через торрент. На UnionPeer.org можно скачать через торрент фильмы 2014 и 2015 годов. Самые новые фильмы.

Скачать торрент Убить за 68 68 Kill бесплатно через .torrent фильм мультфильм сериал

Статистика раздачи
Размер:  7.94 GB   |    Зарегистрирован:  7 месяцев   |    .torrent скачан:  62 раза   |   
Раздают:  1  
   
загрузка...
 
Автор Сообщение

Galfimbul

avatar Galfimbul


Убить за 68 /68 Kill

Год выхода: 2017
Жанр: триллер, мелодрама, комедия, криминал
Режиссер: Трент Хаага
В ролях: Мэттью Грей Гублер, АннаЛинн МакКорд, Алиша Боэ, Шейла Ванд, Сэм Эйдсон, Майкл Бисли, Джеймс Моусес Блэк, Дэвид Мальдонадо, Эджей Мехта

О фильме:
Проблема Чипа в том, что он просто не может сказать «нет» красивым женщинам. Эта его слабость приводит к большим проблемам, когда он соглашается помочь своей подружке украсть 68 тысяч долларов.



Страна: США
Студия: Snowfort Pictures
Продолжительность: 01:31:52
Перевод: Авторский (одноголосый, закадровый)

Формат: MKV
Качество: BDRip 1080p
Видео: MPEG-4 AVC Video / 10.4 Mbps / 1920x808 / 25 fps
Звук:
#1. Русский, Dolby Digital, 5.1, 448 kbps - Яроцкий (ненорматив)
#2. Английский, DTS, 5.1, 1536 kbps - Оригинал
Format : Matroska
Format version : Version 2
File size : 7.94 GiB
Duration : 1 h 31 min
Overall bit rate : 12.4 Mb/s
Movie name : 68 Kill (2017)
Encoded date : UTC 2017-12-10 15:37:13
Writing application : mkvmerge v4.9.1 ('Ich will') сборка от Jul 11 2011 23:53:15
Writing library : libebml v1.2.1 + libmatroska v1.1.1

Video
ID : 1
Format : AVC
Format/Info : Advanced Video Codec
Format profile : High@L4.1
Format settings, CABAC : Yes
Format settings, RefFrames : 5 frames
Codec ID : V_MPEG4/ISO/AVC
Duration : 1 h 31 min
Bit rate : 10.4 Mb/s
Width : 1 920 pixels
Height : 808 pixels
Display aspect ratio : 2.40:1
Frame rate mode : Constant
Frame rate : 25.000 FPS
Color space : YUV
Chroma subsampling : 4:2:0
Bit depth : 8 bits
Scan type : Progressive
Bits/(Pixel*Frame) : 0.268
Stream size : 6.53 GiB (82%)
Title : Убить за 68
Writing library : x264 core 152 r2851 ba24899
Encoding settings : cabac=1 / ref=5 / deblock=1:-2:-2 / analyse=0x3:0x113 / me=umh / subme=8 / psy=1 / psy_rd=1.00:0.00 / mixed_ref=1 / me_range=16 / chroma_me=1 / trellis=2 / 8x8dct=1 / cqm=0 / deadzone=21,11 / fast_pskip=1 / chroma_qp_offset=-2 / threads=12 / lookahead_threads=2 / sliced_threads=0 / nr=0 / decimate=1 / interlaced=0 / bluray_compat=0 / constrained_intra=0 / bframes=3 / b_pyramid=2 / b_adapt=2 / b_bias=0 / direct=3 / weightb=1 / open_gop=0 / weightp=2 / keyint=240 / keyint_min=24 / scenecut=40 / intra_refresh=0 / rc_lookahead=50 / rc=2pass / mbtree=1 / bitrate=10412 / ratetol=1.0 / qcomp=0.60 / qpmin=0 / qpmax=69 / qpstep=4 / cplxblur=20.0 / qblur=0.5 / ip_ratio=1.40 / aq=1:1.00
Language : English
Default : Yes
Forced : No

Audio #1
ID : 2
Format : AC-3
Format/Info : Audio Coding 3
Format settings, Endianness : Big
Codec ID : A_AC3
Duration : 1 h 31 min
Bit rate mode : Constant
Bit rate : 448 kb/s
Channel(s) : 6 channels
Channel positions : Front: L C R, Side: L R, LFE
Sampling rate : 48.0 kHz
Frame rate : 31.250 FPS (1536 SPF)
Bit depth : 16 bits
Compression mode : Lossy
Stream size : 294 MiB (4%)
Title : Яроцкий
Language : Russian
Service kind : Complete Main
Default : Yes
Forced : No

Audio #2
ID : 3
Format : DTS
Format/Info : Digital Theater Systems
Mode : 16
Format settings, Endianness : Big
Codec ID : A_DTS
Duration : 1 h 31 min
Bit rate mode : Constant
Bit rate : 1 509 kb/s
Channel(s) : 6 channels
Channel positions : Front: L C R, Side: L R, LFE
Sampling rate : 48.0 kHz
Frame rate : 93.750 FPS (512 SPF)
Bit depth : 24 bits
Compression mode : Lossy
Stream size : 992 MiB (12%)
Title : Оригинал
Language : English
Default : No
Forced : No

Menu
00:00:00.000 : en:00:00:00.000
00:13:22.120 : en:00:13:22.120
00:21:59.120 : en:00:21:59.120
00:33:33.520 : en:00:33:33.520
00:45:59.480 : en:00:45:59.480
00:57:24.920 : en:00:57:24.920
01:07:29.000 : en:01:07:29.000
01:17:34.240 : en:01:17:34.240
Источник http://arutor.org

Трекер:  [ 10-Дек-2017 19:10 ]

  

Скачать .torrent

Размер .torrent файла 40 KB


Размер: 7.94 GB
Хэш (hash) релиза: bc4e94592a22d03429c95d3a028614e1366e01bd
Подписка на обновления:

Торренты, похожие на Убить за 68 68 Kill скачать торрент

Форум Название Автор Размер S L Добавлен
Зарубежные фильмы 2016-2018 (Новинки зарубежного кино) ·· Убить за 68 / 68 Kill (Трент Хаага / Trent Haaga) [2017, США, триллер, мелодрама, комедия, криминал, HDRip] VO (Яроцкий) Galfimbul 15635046401.46 GB 0 0 1513261813

17:30

14-Дек-17

Зарубежные фильмы 2016-2018 (Новинки зарубежного кино) ·· Убить за 68 / 68 Kill (Трент Хаага) [2017, триллер, мелодрама, комедия, криминал, BDRemux 1080i] Яроцкий Galfimbul 1880528120617.51 GB 0 0 1513115416

00:50

13-Дек-17

Зарубежные фильмы 2016-2018 (Новинки зарубежного кино) ·· Убить за 68 / 68 Kill (Трент Хаага) [2017, триллер, мелодрама, комедия, криминал, WEB-DLRip] Galfimbul 14658457601.37 GB 0 0 1504660367

04:12

6-Сен-17

Зарубежные фильмы 2016-2018 (Новинки зарубежного кино) ·· Убить за 68 / 68 Kill (Трент Хаага) [2017, триллер, мелодрама, комедия, криминал, WEB-DLRip 720р] Galfimbul 29076316892.71 GB 0 0 1502271624

12:40

9-Авг-17

Зарубежные фильмы 2016-2018 (Новинки зарубежного кино) ·· Убить за 68 / 68 Kill (Трент Хаага) [2017, триллер, мелодрама, комедия, криминал, WEB-DLRip] Galfimbul 15606865921.45 GB 0 0 1502271618

12:40

9-Авг-17

Еще никто не оставлял запись к записи скачать торрент Убить за 68 68 Kill . Будь первым!

!Обратная связь