Скачать через торрент Песочные замки Les chateaux de sable Фильм бесплатно в хорошем качестве torrent

Скачивайте на UnionPeer.org фильмы через торрент без регистрации. Новинки кино в хорошем качестве через торрент. На UnionPeer.org можно скачать через торрент фильмы 2014 и 2015 годов. Самые новые фильмы.

Скачать торрент Песочные замки Les chateaux de sable бесплатно через .torrent фильм мультфильм сериал

Если у вас наблюдаются проблемы со скриншотами, переходом по ссылками, скачиванием торрентов - проблемы в блокировщике рекламы AdBlock. #хорошегоДня!


Статистика раздачи
Размер:  2.26 GB   |    Зарегистрирован:  1 месяц 8 дней   |    .torrent скачан:  27 раз   |   
Раздают:  1  
   
Загрузка...
 
Автор Сообщение

Galfimbul

avatar Galfimbul


Песочные замки
Les châteaux de sable
Страна: Франция
Жанр: комедия, драма, мелодрама
Год выпуска: 2015
Продолжительность: 01:38:11Перевод: Субтитры (русский перевод М.Кузиной, ECLAIR)
Субтитры: русские, английские, французские, немецкие, нидерландские
Оригинальная аудиодорожка: французский

Режиссер: Оливье Жаан / Olivier Jahan

В ролях: Эмма де Кон / Emma de Caunes (Eléonore), Янник Ренье / Yannick Renier (Samuel), Жанна Роса / Jeanne Rosa (Claire Andrieux), Кристина Брюхер / Christine Brücher (Maëlle Prigent), Ален Шамфор / Alain Chamfort (Le père d'Eléonore), Гаэль Бона / Gaëlle Bona (Laure)

Описание: Элеонора решает продать дом в Бретани, который ей завещал недавно умерший отец. Она убеждает Самюэля, своего бывшего, поехать вместе с ней и встретиться с Клэр Андрие, агентом по недвижимости, которая организует просмотр дома для продажи. Эта троица проведет там странные и веселые выходные.

Доп. информация: Hot Bird (13.0°E) TV5MONDE Europe DVB-S

Награда: приз зрительских симпатий за лучшую женскую роль второго плана (Jeanne Rosa) на Festival Jean Carmet des Seconds Rôles 2015.

Качество видео: DVB
Формат видео: MKV

Видео: MPEG Video 2, 720x576@1024x576 (16:9), 25 fps, ~3041 kbps avg, 0.293 bit/pixel
Аудио: MPEG Audio 2, 2 ch, 48 kHz, ~192.00 kbps avg - французский
Формат субтитров: softsub (SRT)
100:00:29,760 --> 00:00:32,282Мой отец любил Бретань.

200:00:32,282 --> 00:00:36,907Мечтал доживать там свой век.

300:00:37,600 --> 00:00:39,60310 лет назадон вышел на пенсию,

400:00:39,603 --> 00:00:42,483купил домв департаменте Кот-д'Армор

500:00:42,483 --> 00:00:45,598и уехал из парижской квартиры,где мы с ним жили

600:00:45,598 --> 00:00:46,843после смерти мамы.

700:00:46,843 --> 00:00:50,559"Блуждания птицы"Гао Синцзянь

800:00:50,559 --> 00:00:52,203Дом был слишком большим,

900:00:52,203 --> 00:00:57,828и он надеялся,что я буду приезжать.

1000:01:11,842 --> 00:01:16,165Мой отец умер 27 июня 2013 г.

1100:01:16,165 --> 00:01:18,915ПЕСОЧНЫЕ ЗАМКИ

1200:01:38,595 --> 00:01:41,089Отец Элеоноры умер 2 месяца назад.

1300:01:41,089 --> 00:01:42,761Ей надо продать его дом.

1400:01:42,761 --> 00:01:43,761Непременно.

1500:01:43,724 --> 00:01:44,724Здравствуйте.

1600:01:44,723 --> 00:01:47,680Она решила поехать тудана пятницу и субботу

1700:01:47,680 --> 00:01:49,644и вернуться в воскресенье.

1800:01:49,644 --> 00:01:51,201С вас 8,50.

1900:01:51,201 --> 00:01:55,885Попросила Самюэля отвезтиее на машине в Кер-Салу.

2000:01:55,885 --> 00:02:02,385У нее нет водительских прав.Он согласился.
GeneralUnique ID : 199524501448489542028776774290068800292 (0x961B056D390B0976A9A402835CE50324)Complete name : [apreder]Les_chateaux_de_sable(2015)DVB.mkvFormat : MatroskaFormat version : Version 2File size : 2.26 GiBDuration : 1 h 38 minOverall bit rate mode : VariableOverall bit rate : 3 298 kb/sMovie name : Les chвteaux de sableReleased date : 2015-04-01Encoded date : UTC 2017-12-07 15:29:19Writing application : mkvmerge v18.0.0 ('Apricity') 64-bitWriting library : libebml v1.3.5 + libmatroska v1.4.8Cover : YesAttachments : cover.jpg / small_cover.jpgACTOR : Emma de Caunes, Yannick Renier, Jeanne RosaDIRECTOR : Olivier JahanGENRE : Comedy, Drama, RomanceIMDB : tt3223302KEYWORDS : rutracker.orgLAW_RATING : 16+

VideoID : 1Format : MPEG VideoFormat version : Version 2Format profile : Main@MainFormat settings : CustomMatrix / BVOPFormat settings, BVOP : YesFormat settings, Matrix : CustomFormat settings, GOP : M=4, N=12Format settings, picture structure : FrameCodec ID : V_MPEG2Codec ID/Info : MPEG 1 or 2 VideoDuration : 1 h 38 minBit rate mode : VariableBit rate : 3 041 kb/sMaximum bit rate : 15.0 Mb/sWidth : 720 pixelsHeight : 576 pixelsDisplay aspect ratio : 16:9Active Format Description : Letterbox 16:9 imageFrame rate mode : ConstantFrame rate : 25.000 FPSStandard : PALColor space : YUVChroma subsampling : 4:2:0Bit depth : 8 bitsScan type : InterlacedScan order : Top Field FirstCompression mode : LossyBits/(Pixel*Frame) : 0.293Stream size : 2.09 GiB (92%)Default : YesForced : No

AudioID : 2Format : MPEG AudioFormat version : Version 1Format profile : Layer 2Format settings : Joint stereo / Intensity Stereo + MS StereoCodec ID : A_MPEG/L2Codec ID/Hint : MP2Duration : 1 h 38 minBit rate mode : ConstantBit rate : 192 kb/sChannel(s) : 2 channelsSampling rate : 48.0 kHzCompression mode : LossyStream size : 135 MiB (6%)Language : FrenchDefault : YesForced : No

Text #1ID : 3Format : UTF-8Codec ID : S_TEXT/UTF8Codec ID/Info : UTF-8 Plain TextLanguage : RussianDefault : NoForced : No

Text #2ID : 4Format : UTF-8Codec ID : S_TEXT/UTF8Codec ID/Info : UTF-8 Plain TextLanguage : EnglishDefault : NoForced : No

Text #3ID : 5Format : UTF-8Codec ID : S_TEXT/UTF8Codec ID/Info : UTF-8 Plain TextLanguage : FrenchDefault : NoForced : No

Text #4ID : 6Format : UTF-8Codec ID : S_TEXT/UTF8Codec ID/Info : UTF-8 Plain TextLanguage : GermanDefault : NoForced : No

Text #5ID : 7Format : UTF-8Codec ID : S_TEXT/UTF8Codec ID/Info : UTF-8 Plain TextLanguage : DutchDefault : NoForced : No


<div class="sp-wrap">
<div class="sp-head folded">Резервные скриншоты</div>
<div class="sp-body">

</div>
</div>
[3'973]

Трекер:  [ 10-Дек-2017 19:30 ]

  

Скачать .torrent

Размер .torrent файла 23 KB


Размер: 2.26 GB
Хэш (hash) релиза: 6939a3c66d618175484f4d5ec23f2b969ef222a6
Подписка на обновления:

Еще никто не оставлял запись к записи скачать торрент Песочные замки Les chateaux de sable . Будь первым!

!Обратная связь