Скачать через торрент Падение Ордена Knightfall Фильм бесплатно в хорошем качестве torrent

Скачивайте на UnionPeer.org фильмы через торрент без регистрации. Новинки кино в хорошем качестве через торрент. На UnionPeer.org можно скачать через торрент фильмы 2014 и 2015 годов. Самые новые фильмы.

Скачать торрент Падение Ордена Knightfall бесплатно через .torrent фильм мультфильм сериал

Статистика раздачи
Размер:  3.39 GB   |    Зарегистрирован:  7 месяцев   |    .torrent скачан:  143 раза   |   
Раздают:  1  
   
загрузка...
 
Автор Сообщение

Galfimbul

avatar Galfimbul


Падение Ордена / Knightfall
1 сезон, 1-3 серии из 103-я серия HDTV, 1-2 заменены на WEB-DL (AMZN)
Год выпуска: 2017
Страна: США,
Жанр: боевик, драма, военный, приключения
Продолжительность: ~44 мин
Озвучание: профессиональное многоголосое закадровое (AlexFilm)Режиссеры: Дуглас Маккиннон, Метин Хусейн, Дэвид Петрарка

В ролях: Том Каллен, Падрейк Делани, Саймон Мерреллс, Оливия Росс, Джулиан Овенден, Эд Стоппард, Сабрина Бартлетт, Бобби Шофилд, Сара-Софи Бусснина, Нассер Мемарзиа и др.Описание: Действие сериала разворачивается вокруг самой драгоценной и загадочной реликвии христианства — Святого Грааля, бесследно утерянного в результате падения города Акры, последнего оплота тамплиеров. Существование Ордена теперь под угрозой и зависит от того, будет ли найден Кубок Христа. На поиски Грааля отправляется предводитель тамплиеров — храбрый воин сэр Лэндри, чтобы помешать уничтожению Ордена.Релиз:

Перевод: Виктория Востокова
Монтаж и сведение звука: Михаил Шорыгин
Роли озвучивали:
<div style="margin-left: 2em" class="post-ul">

Евгения Тихонова
Владимир Курдов
Константин Федосеев
Дмитрий Лунёв
Кирилл Патрино
Михаил Суслов

</div>
Качество: WEB-DL 720p
Формат: MKV
Видео: 1280x718 (16:9), 23.976 fps, MPEG-4 AVC ~3800 kbps avg, 0.19 bit/pixel
Аудио Rus: 48 kHz, AC3 2.0, ~192 kbps avg
Аудио Eng: 48 kHz, AC3 2.0, ~192 kbps avg
Субтитры: нет
Реклама: отсутствует
Формат : Matroska
Версия формата : Version 4 / Version 2
Размер файла : 1,32 Гбайт
Продолжительность : 43 м. 40 с.
Общий поток : 4313 Кбит/сек
Название фильма : Knightfall 1x01 @ AlexFilm
Дата кодирования : UTC 2017-12-07 06:26:40
Программа кодирования : mkvmerge v7.1.0 ('Good Love') 64bit built on Jul 27 2014 13:06:55
Библиотека кодирования : libebml v1.3.0 + libmatroska v1.4.1

Видео
Идентификатор : 1
Формат : AVC
Формат/Информация : Advanced Video Codec
Профиль формата : High@L4.1
Параметр CABAC формата : Да
Параметр ReFrames формата : 5 кадров
Идентификатор кодека : V_MPEG4/ISO/AVC
Продолжительность : 43 м. 40 с.
Битрейт : 3843 Кбит/сек
Ширина : 1280 пикселей
Высота : 718 пикселей
Соотношение сторон : 16:9
Режим частоты кадров : Постоянный
Частота кадров : 23,976 (24000/1001) кадра/сек
Цветовое пространство : YUV
Субдискретизация насыщенности : 4:2:0
Битовая глубина : 8 бит
Тип развёртки : Прогрессивная
Бит/(Пиксели*Кадры) : 0.174
Размер потока : 1,17 Гбайт (89%)
Библиотека кодирования : x264 core 152 r2851 ba24899
Настройки программы : cabac=1 / ref=5 / deblock=1:0:0 / analyse=0x3:0x113 / me=hex / subme=8 / psy=1 / psy_rd=1.00:0.00 / mixed_ref=1 / me_range=16 / chroma_me=1 / trellis=2 / 8x8dct=1 / cqm=0 / deadzone=21,11 / fast_pskip=1 / chroma_qp_offset=-2 / threads=22 / lookahead_threads=3 / sliced_threads=0 / nr=0 / decimate=1 / interlaced=0 / bluray_compat=0 / constrained_intra=0 / bframes=3 / b_pyramid=2 / b_adapt=1 / b_bias=0 / direct=3 / weightb=1 / open_gop=0 / weightp=2 / keyint=250 / keyint_min=23 / scenecut=40 / intra_refresh=0 / rc_lookahead=50 / rc=crf / mbtree=1 / crf=18.0 / qcomp=0.60 / qpmin=0 / qpmax=69 / qpstep=4 / ip_ratio=1.40 / aq=1:1.00
Default : Да
Forced : Нет
Цветовой диапазон : Limited
Коэффициенты матрицы : BT.709

Аудио #1
Идентификатор : 2
Формат : AC-3
Формат/Информация : Audio Coding 3
Расширение режима : CM (complete main)
Параметр Endianness формата : Big
Идентификатор кодека : A_AC3
Продолжительность : 43 м. 40 с.
Вид битрейта : Постоянный
Битрейт : 192 Кбит/сек
Каналы : 2 канала
Расположение каналов : Front: L R
Частота : 48,0 КГц
Частота кадров : 31,250 кадров/сек (1536 spf)
Метод сжатия : С потерями
Размер потока : 60,0 Мбайт (4%)
Заголовок : DD2.0 AlexFilm
Язык : Russian
Default : Да
Forced : Нет

Аудио #2
Идентификатор : 3
Формат : AC-3
Формат/Информация : Audio Coding 3
Расширение режима : CM (complete main)
Параметр Endianness формата : Big
Идентификатор кодека : A_AC3
Продолжительность : 43 м. 40 с.
Вид битрейта : Постоянный
Битрейт : 192 Кбит/сек
Каналы : 2 канала
Расположение каналов : Front: L R
Частота : 48,0 КГц
Частота кадров : 31,250 кадров/сек (1536 spf)
Метод сжатия : С потерями
Размер потока : 60,0 Мбайт (4%)
Заголовок : DD2.0 Original
Язык : English
Default : Нет
Forced : Нет
Внимание! Раздача ведётся путём добавления новых серий; при каждом добавлении создаётся новый торрент. Чтобы начать докачку новой серии, пользователям необходимо сделать следующее:
(1) остановить скачивание,
(2) удалить старый торрент у себя из клиента (старые серии удалять не надо),
(3) скачать новый торрент и запустить его у себя в клиенте вместо старого, при этом указать клиенту путь в старую папку куда и должно происходить скачивание новых серий.
Ваш клиент при этом должен произвести хеширование (проверку) старой папки (если не производит сам - помогите ему сделать это), и будет докачивать только те серии которых у вас ещё нет. Старые серии при этом не удаляются, а продолжают раздаваться!
Eсли вы уже удалили старые серии, то предотвратить повторную закачку старых серий можно, отжав галочку в соответствующих местах при запуске нового торрента. По возможности, желательно не удалять старые серии как можно дольше чтобы релизёр не столько продолжал раздавать старые серии, а смог сконцентрироваться на новых.


Трекер:  [ 21-Дек-2017 19:24 ]

  

Скачать .torrent

Размер .torrent файла 17 KB


Размер: 3.39 GB
Хэш (hash) релиза: 8f6df570d64b2a63f2a7c0d0836ed8dfe6eec3cb
Подписка на обновления:

Еще никто не оставлял запись к записи скачать торрент Падение Ордена Knightfall . Будь первым!

!Обратная связь