Скачать через торрент Эспен в королевстве троллей Askeladden - I Dovregubbens hall бесплатно русская версия torrent активатор

Статистика раздачи
Размер:  3.37 GB   |    Зарегистрирован:  4 года 9 месяцев   |    .torrent скачан:  46 раз   |   
Раздают:  1  
   
 
Автор Сообщение

Galfimbul

avatar Galfimbul


Эспен в королевстве троллей / Askeladden - I Dovregubbens hall
-

6.222 / 10 6.40 / 10
Год выпуска: 2017
Страна: Норвегия
Жанр: Приключения
Продолжительность: 01:44:33

Перевод: Дублированный (iTunes)
Оригинальная аудиодорожка: Нет
Cубтитры: Нет
Режиссёр: Миккель Бренне Сандемусе
Сценарий: Александр Кирквуд Браун, Эспен Энгер
Продюсер: Синнёве Хёрсдаль, Асхильд Ариан Рамборг, Анника Кэссиди
Оператор: Юн Кристиан Розенлунд
Композитор: Джиндж Анвик
Художник: Карл Юлиуссон, Индржих Кочи, Милена Кубкова
Монтаж: Видар Флатокан
В ролях: Вебьёрн Энгер, Элли Харбоа, Мэдс Сьёгард Петтерсен, Элиас Хольмен Сёренсен, Эллан Хайд, Гискен Арманд, Гард Б. Эйдсвольд, Синневе Макоди Лунд, Торбьорн Харр, Ида Урсин-Хольм

Сборы в России: $98 557

Мировая премьера: 29 сентября 2017
Премьера (РФ): 7 декабря 2017, «Capella Film»

Цифровой релиз: 25 декабря 2017, «Capella Film»

Описание: Отважный Эспен отправляется в увлекательное и опасное приключение к пещере горного короля, чтобы спасти принцессу и все королевство.Качество исходника: WEB-DL 720p (NNMClub)
Качество: WEB-DL
Тип: HD (720p)
Контейнер: M4V
Видео: H.264, 1280x536, 2.40:1, 4 057 Kbps, 24.000 fps

Аудио 1: Русский/Дублированный (iTunes), AAC / 2.0 / 160 Kbps / 48.0 KHz
Аудио 2: Русский/Дублированный (iTunes), AC-3 / 5.1 / 384 Kbps / 48.0 KHz
Sort Name: Эспен в королевстве троллей
XID: Apple:vendor_id:2017-979362
contentID: 1323956583
Copyright: © 2017 Capella Film
Screenwriters: Александр Кирквуд Браун, Эспен Энгер
Producers: Синнёве Хёрсдаль, Асхильд Ариан Рамборг, Анника Кэссиди
Director: Миккель Бренне Сандемусе
Cast: Вебьёрн Энгер, Элли Харбоа, Мэдс Сьёгард Петтерсен, Элиас Хольмен Сёренсен, Эллан Хайд, Гискен Арманд, Гард Б. Эйдсвольд, Синневе Макоди Лунд, Торбьорн Харр, Ида Урсин-Хольм
Studio: Maipo Film, Sirena Film, Subotica Entertainment Ltd.
Rating: 133
Long Description: Отважный Эспен отправляется в увлекательное и опасное приключение к пещере горного короля, чтобы спасти принцессу и все королевство.
Description: Отважный Эспен отправляется в увлекательное и опасное приключение к пещере горного короля, чтобы спасти принцессу и все королевство.
Release Date: 2017-09-29T08:00:00Z
Genre: Sci-Fi & Fantasy
Artist: Миккель Бренне Сандемусе
Name: Эспен в королевстве троллей
General
Complete name : /Users/imac/HandBrake/Askeladden.I.Dovregubbens.hall.WEB-DL.720p.m4v
Format : MPEG-4
Codec ID : M4V
File size : 3.37 GiB
Duration : 1h 44mn
Overall bit rate mode : Variable
Overall bit rate : 4 609 Kbps
Movie name : Эспен в королевстве троллей
Performer : Миккель Бренне Сандемусе
Director : Миккель Бренне Сандемусе
Actor : Вебьёрн Энгер / Элли Харбоа / Мэдс Сьёгард Петтерсен / Элиас Хольмен Сёренсен / Эллан Хайд / Гискен Арманд / Гард Б. Эйдсвольд / Синневе Макоди Лунд / Торбьорн Харр / Ида Урсин-Хольм
Screenplay by : Александр Кирквуд Браун / Эспен Энгер
Producer : Синнёве Хёрсдаль / Асхильд Ариан Рамборг / Анника Кэссиди
Production studio : Maipo Film, Sirena Film, Subotica Entertainment Ltd.
Genre : Sci-Fi & Fantasy
ContentType : Short Film
Description : Отважный Эспен отправляется в увлекательное и опасное приключение к пещере горного короля, чтобы спасти принцессу и все королевство.
Recorded date : UTC 2017-09-29 08:00:00
Encoded date : UTC 2017-12-25 16:06:17
Tagged date : UTC 2017-12-25 16:57:07
Copyright : © 2017 Capella Film
Cover : Yes
Rating : None
Title/Sort : Эспен в королевстве троллей
LongDescription : Отважный Эспен отправляется в увлекательное и опасное приключение к пещере горного короля, чтобы спасти принцессу и все королевство.
HDVideo : Yes
AppleStoreCatalogID : 1323956583
Vendor : Apple:vendor_id:2017-979362
ContentRating : ru-movie|6+|150|

Video #1
ID : 1
Format : AVC
Format/Info : Advanced Video Codec
Format profile : Main@L3.1
Format settings, CABAC : No
Format settings, ReFrames : 2 frames
Format settings, GOP : N=1
Codec ID : avc1
Codec ID/Info : Advanced Video Coding
Duration : 1h 44mn
Bit rate : 4 057 Kbps
Width : 1 280 pixels
Height : 536 pixels
Display aspect ratio : 2.40:1
Frame rate mode : Variable
Frame rate : 24.000 fps
Minimum frame rate : 23.810 fps
Maximum frame rate : 24.390 fps
Color space : YUV
Chroma subsampling : 4:2:0
Bit depth : 8 bits
Scan type : Progressive
Bits/(Pixel*Frame) : 0.246
Stream size : 2.96 GiB (88%)
Title : Main Program
Language : English
Encoded date : UTC 2017-12-25 16:06:17
Tagged date : UTC 2017-12-25 16:06:46
Color range : Limited
Color primaries : BT.709
Transfer characteristics : BT.709
Matrix coefficients : BT.709

Video #2
ID : 5
Format : JPEG
Codec ID : jpeg
Duration : 1h 44mn
Bit rate mode : Variable
Bit rate : 793 bps
Width : 640 pixels
Height : 268 pixels
Display aspect ratio : 2.40:1
Frame rate mode : Variable
Frame rate : 0.002 fps
Minimum frame rate : 0.001 fps
Maximum frame rate : 0.004 fps
Color space : YUV
Chroma subsampling : 4:2:0
Bit depth : 8 bits
Compression mode : Lossy
Bits/(Pixel*Frame) : 2.312
Stream size : 678 KiB (0%)
Title : Chapter Images
Language : English
Encoded date : UTC 2017-12-25 16:06:49
Tagged date : UTC 2017-12-25 16:06:49

Audio #1
ID : 2
Format : AAC
Format/Info : Advanced Audio Codec
Format profile : LC
Codec ID : 40
Duration : 1h 44mn
Source duration : 1h 44mn
Bit rate mode : Variable
Bit rate : 158 Kbps
Maximum bit rate : 232 Kbps
Channel(s) : 2 channels
Channel positions : Front: L R
Sampling rate : 48.0 KHz
Compression mode : Lossy
Stream size : 118 MiB (3%)
Source stream size : 118 MiB (3%)
Title : Russian Stereo
Language : Russian
Encoded date : UTC 2017-12-25 16:06:17
Tagged date : UTC 2017-12-25 16:06:23

Audio #2
ID : 3
Format : AC-3
Format/Info : Audio Coding 3
Mode extension : CM (complete main)
Format settings, Endianness : Big
Codec ID : ac-3
Duration : 1h 44mn
Bit rate mode : Constant
Bit rate : 384 Kbps
Channel(s) : 6 channels
Channel positions : Front: L C R, Side: L R, LFE
Sampling rate : 48.0 KHz
Bit depth : 16 bits
Compression mode : Lossy
Stream size : 287 MiB (8%)
Title : Russian DD 5.1
Language : Russian
Encoded date : UTC 2017-12-25 16:06:17
Tagged date : UTC 2017-12-25 16:06:23

Menu #1
00:00:00.000 : 1
00:04:11.791 : 2
00:10:30.374 : 3
00:18:28.749 : 4
00:25:03.665 : 5
00:30:03.748 : 6
00:38:21.039 : 7
00:54:00.830 : 8
01:00:55.871 : 9
01:05:31.787 : 10
01:16:02.953 : 11
01:23:50.494 : 12
01:32:44.160 : 13
01:39:33.118 : 14

Menu #2
ID : 4
Codec ID : text
Duration : 1h 44mn
Language : English
Encoded date : UTC 2017-12-25 16:06:46
Tagged date : UTC 2017-12-25 16:06:46
00:00:00.000 : 1
00:04:11.791 : 2
00:10:30.374 : 3
00:18:28.749 : 4
00:25:03.665 : 5
00:30:03.748 : 6
00:38:21.039 : 7
00:54:00.830 : 8
01:00:55.871 : 9
01:05:31.787 : 10
01:16:02.953 : 11
01:23:50.494 : 12
01:32:44.160 : 13
01:39:33.118 : 14
Bit rate mode : VBR

Релиз подготовлен для просмотра на Apple TV, iPad, iPhone, iPod Touch.
Для просмотра данного релиза на компьютере с ОС Windows рекомендуется использовать VLC media player

Внимание! AdBlock блокирует показ скриншотов, все вопросы к разработчикам )))
Трекер:  [ 25-Дек-2017 20:12 ]

  

Скачать .torrent

Размер .torrent файла 34 KB


Размер: 3.37 GB
Хэш (hash) релиза: 6e4660c28201af9d8bf94bfdbb5fe061122acd67

Еще никто не оставлял запись к записи скачать торрент Эспен в королевстве троллей Askeladden - I Dovregubbens hall . Будь первым!

!Обратная связь