Скачать через торрент Олаф и холодное приключение и 6 зимних историй Olafs Frozen Adventure - Includes 6 Disney Tales Фильм бесплатно в хорошем качестве torrent

Скачивайте на UnionPeer.org фильмы через торрент без регистрации. Новинки кино в хорошем качестве через торрент. На UnionPeer.org можно скачать через торрент фильмы 2014 и 2015 годов. Самые новые фильмы.

Скачать торрент Олаф и холодное приключение и 6 зимних историй Olafs Frozen Adventure - Includes 6 Disney Tales бесплатно через .torrent фильм мультфильм сериал

Статистика раздачи
Размер:  2.87 GB   |    Зарегистрирован:  7 месяцев   |    .torrent скачан:  405 раз   |   
Раздают:  2  
   
загрузка...
 
Автор Сообщение

Galfimbul

avatar Galfimbul


Название: Олаф и холодное приключение и 6 зимних историй
Оригинальное название: Olaf's Frozen Adventure - Includes 6 Disney Tales
Год выпуска: 2017
Жанр: мультфильм, короткометражка, мюзикл, фэнтези, комедия, приключения, семейный
Режиссер: Кевин Дитерс , Стиви Вермерс
В ролях: Джош Гад (Olaf, озвучка), Идина Мензел (Elsa, озвучка), Кристен Белл (Anna, озвучка), Джонатан Грофф (Kristoff, озвучка), Крис Уильямс (Oaken, озвучка), Джон де Ланси (Mr. Olsen, озвучка), Лаури Фрайзер (Mrs. Olsen, озвучка), Benjamin Deters (Candy Cane Kid, озвучка), Ева Белла (Young Elsa, озвучка, хроника), Evan Agos (дополнительные голоса, озвучка), Stephen John Anderson (дополнительные голоса, озвучка), Абрахам Бенруби (дополнительные голоса, озвучка)
О фильме:
В преддверии зимних праздников любимые герои из анимационного фильма «Холодное сердце» возвращаются на экраны. Олаф и Свен отправляются в весёлое путешествие. Это первое Рождество с тех пор, как были открыты ворота, и Анна с Эльзой приготовили пир для всего Эренделла. Когда жители города неожиданно расходятся по домам, чтобы заняться привычными праздничными хлопотами, сёстры понимают, что у них нет семейных традиций. Олаф решает прочесать королевство, найти лучшие традиции и спасти первое Рождество для своих друзей. (22 минуты). Для создания волшебного праздничного настроения в цифровое издание также вошли ещё шесть зимних историй (46 минут). Классические анимационные короткометражки Disney с любимыми героями: Микки Маус, Плуто, Дональд Дак, Гуфи и другие. Среди них: «Хоккейный чемпион», «Зима», «Искусство катания на лыжах», «Новогодняя ёлка Плуто», «Полярные охотники», «Однажды зимой».
MPAA: G - Нет возрастных ограничений
Страна: США
Студия: Walt Disney Animation Studios
Продолжительность: 01:08:45
Перевод: Профессиональный (дублированный) iTunes
Релиз:

Файл
Качество: WEB-DL 1080p
Формат: Matroska
Видео: 1920x1080 at 23,976 fps, MPEG-4 AVC, ~5000 kbps avg
Аудио#1: Russian: 48 kHz, AC3, 3/2 (L,C,R,l,r) + LFE ch, ~384 kbps avg |Дубляж, iTunes|
Аудио#2: English: 48 kHz, AC3, 3/2 (L,C,R,l,r) + LFE ch, ~384 kbps avg
Субтитры: Russian (Full, Forced), English (Forced)
Общее
Уникальный идентификатор : 210524866344607618506911014405000877363 (0x9E619D4A2DA0CF639A8B10D7943F5533)
Полное имя : OLAF_AND_FA_(6 minimovies)_WEB_DL_1080p-BLUEBIRD.mkv
Формат : Matroska
Версия формата : Version 4 / Version 2
Размер файла : 2,87 Гбайт
Продолжительность : 1 ч. 8 м.
Общий поток : 5972 Кбит/сек
Название фильма : OLAF_AND_FA_(6 minimovies)_WEB_DL_1080p-BLUEBIRD
Дата кодирования : UTC 2017-12-25 14:04:31
Программа кодирования : mkvmerge v6.9.1 ('Blue Panther') 64bit built on Apr 18 2014 18:23:38
Библиотека кодирования : libebml v1.3.0 + libmatroska v1.4.1

Видео
Идентификатор : 1
Формат : AVC
Формат/Информация : Advanced Video Codec
Профиль формата : High@L4.0
Параметр CABAC формата : Да
Параметр ReFrames формата : 4 кадра
Идентификатор кодека : V_MPEG4/ISO/AVC
Продолжительность : 1 ч. 8 м.
Битрейт : 5085 Кбит/сек
Ширина : 1920 пикселей
Высота : 1080 пикселей
Соотношение сторон : 16:9
Режим частоты кадров : Постоянный
Частота кадров : 23,976 кадра/сек
Цветовое пространство : YUV
Субдискретизация насыщенности : 4:2:0
Битовая глубина : 8 бит
Тип развёртки : Прогрессивная
Бит/(Пиксели*Кадры) : 0.102
Размер потока : 2,44 Гбайт (85%)
Заголовок : OLAF_AND_FA_(6 minimovies)_WEB_DL_1080p-BLUEBIRD
Язык : English
Default : Да
Forced : Нет
Основные цвета : BT.709
Характеристики трансфера : BT.709
Коэффициенты матрицы : BT.709

Аудио #1
Идентификатор : 2
Формат : AC-3
Формат/Информация : Audio Coding 3
Расширение режима : CM (complete main)
Параметр Endianness формата : Big
Идентификатор кодека : A_AC3
Продолжительность : 1 ч. 8 м.
Вид битрейта : Постоянный
Битрейт : 384 Кбит/сек
Каналы : 6 каналов
Расположение каналов : Front: L C R, Side: L R, LFE
Частота : 48,0 КГц
Битовая глубина : 16 бит
Метод сжатия : С потерями
Размер потока : 189 Мбайт (6%)
Заголовок : [DUB] DD 5.1 @ 384 kbps (iTunes)
Язык : Russian
Default : Да
Forced : Нет

Аудио #2
Идентификатор : 3
Формат : AC-3
Формат/Информация : Audio Coding 3
Расширение режима : CM (complete main)
Параметр Endianness формата : Big
Идентификатор кодека : A_AC3
Продолжительность : 1 ч. 8 м.
Вид битрейта : Постоянный
Битрейт : 384 Кбит/сек
Каналы : 6 каналов
Расположение каналов : Front: L C R, Side: L R, LFE
Частота : 48,0 КГц
Битовая глубина : 16 бит
Метод сжатия : С потерями
Размер потока : 189 Мбайт (6%)
Заголовок : [ORIGINAL] DD 5.1 @ 384 kbps (iTunes)
Язык : English
Default : Нет
Forced : Нет

Текст #1
Идентификатор : 4
Формат : UTF-8
Идентификатор кодека : S_TEXT/UTF8
Идентификатор кодека/Информация : UTF-8 Plain Text
Заголовок : Full-length
Язык : Russian
Default : Нет
Forced : Нет

Текст #2
Идентификатор : 5
Формат : UTF-8
Идентификатор кодека : S_TEXT/UTF8
Идентификатор кодека/Информация : UTF-8 Plain Text
Заголовок : Forced
Язык : Russian
Default : Да
Forced : Да

Текст #3
Идентификатор : 6
Формат : UTF-8
Идентификатор кодека : S_TEXT/UTF8
Идентификатор кодека/Информация : UTF-8 Plain Text
Заголовок : Forced
Язык : English
Default : Нет
Forced : Нет

Меню
00:00:00.000 : en:1
00:21:52.000 : en:2
00:30:23.000 : en:3
00:37:20.000 : en:4
00:44:57.000 : en:5
00:52:57.000 : en:6
01:01:32.000 : en:7
Источник http://arutor.org

Трекер:  [ 26-Дек-2017 17:40 ]

  

Скачать .torrent

Размер .torrent файла 15 KB


Размер: 2.87 GB
Хэш (hash) релиза: b638a69bea0f99b3f82397f787282cd8b4ce94
Подписка на обновления:

Еще никто не оставлял запись к записи скачать торрент Олаф и холодное приключение и 6 зимних историй Olafs Frozen Adventure - Includes 6 Disney Tales . Будь первым!

!Обратная связь