Скачать через торрент Пит и его дракон Petes Dragon Фильм бесплатно в хорошем качестве torrent

Скачивайте на UnionPeer.org фильмы через торрент без регистрации. Новинки кино в хорошем качестве через торрент. На UnionPeer.org можно скачать через торрент фильмы 2014 и 2015 годов. Самые новые фильмы.

Скачать торрент Пит и его дракон Petes Dragon бесплатно через .torrent фильм мультфильм сериал

Статистика раздачи
Размер:  1.46 GB   |    Зарегистрирован:  6 лет 1 месяц   |    .torrent скачан:  68 раз   |   
Раздают:  1  
 

Скачать Пит и его дракон / Pete's Dragon (Дэвид Лоури / David Lowery) [2016, США, фэнтези, приключения, семейный, BDRip] AVO (Юрий Сербин) через torrent

 
 
Автор Сообщение

Galfimbul

avatar Galfimbul


Пит и его дракон / Pete's Dragon

Страна: США
Жанр: фэнтези, приключения, семейный
Год выпуска: 2016
Продолжительность: 01:42:45

Перевод: Авторский (одноголосый закадровый) Юрий Сербин
Субтитры: нет
Режиссер: Дэвид Лоури / David Lowery

В ролях: Брайс Даллас Ховард, Роберт Редфорд, Оакс Фигли, Уна Лоуренс, Уэс Бентли, Карл Урбан, Исайя Уитлок мл., Маркус Хендерсон, Аарон Джексон

Описание: Долгие годы мистер Мичем веселил местных детишек сказочными историями о свирепом драконе, обитающим на севере, глубоко в лесах. Для его дочери Грейс все эти истории казались ничем иным как выдумкой, ровно до тех пор, пока она не встретила в лесу маленького мальчика по имени Пит. Пит уже долгое время живет в диком лесу, у него нет ни дома, ни семьи, зато есть замечательный друг – огромный зеленый дракон Эллиот. Грейс решает разгадать историю юного Пита, узнать всю правду о его семье и загадочном драконе, о котором ходит так много слухов и легенд....

Сэмпл: https://yadi.sk/i/3IO6VjAb3RC3mC

Качество видео: BDRip (Исходник Blu-ray disc 1080p)
Формат видео: AVI

Видео: XviD 73, 720x304, (2,35:1), 23,976 fps, 1582 Кбит/с, 8 бит, 0.30 bit/pixel
Аудио: Русский (АС3, 6 ch (Front: L C R, Side: L R, LFE), 48,0 KHz, 448 Kbps)
ОбщееПолное имя : H:\Фильмы на трекер\Пит и его дракон (фэнтези, приключения, семейный 2016 год).aviФормат : AVIФормат/Информация : Audio Video InterleaveРазмер файла : 1,46 ГбайтПродолжительность : 1 ч. 42 м.Общий поток : 2039 Кбит/секПрограмма кодирования : VirtualDubMod 1.5.10.2 (build 2540/release)Библиотека кодирования : VirtualDubMod build 2540/release

ВидеоИдентификатор : 0Формат : MPEG-4 VisualПрофиль формата : Advanced Simple@L5Параметр BVOP формата : 2Параметр QPel формата : НетПараметр GMC формата : Без точки переходаПараметр матрицы формата : ВыборочнаяИдентификатор кодека : XVIDИдентификатор кодека/Подсказка : XviDПродолжительность : 1 ч. 42 м.Битрейт : 1582 Кбит/секШирина : 720 пикселейВысота : 304 пикселяСоотношение сторон : 2,35:1Частота кадров : 23,976 (23976/1000) кадра/секЦветовое пространство : YUVСубдискретизация насыщенности : 4:2:0Битовая глубина : 8 битТип развёртки : ПрогрессивнаяМетод сжатия : С потерямиБит/(Пиксели*Кадры) : 0.301Размер потока : 1,14 Гбайт (78%)Библиотека кодирования : XviD 73

АудиоИдентификатор : 1Формат : AC-3Формат/Информация : Audio Coding 3Расширение режима : CM (complete main)Параметр Endianness формата : BigИдентификатор кодека : 2000Продолжительность : 1 ч. 42 м.Вид битрейта : ПостоянныйБитрейт : 448 Кбит/секКаналы : 6 каналовРасположение каналов : Front: L C R, Side: L R, LFEЧастота : 48,0 КГцЧастота кадров : 31,250 кадров/сек (1536 spf)Метод сжатия : С потерямиРазмер потока : 329 Мбайт (22%)Выравнивание : Разделение по промежуткамПродолжительность промежутка : 42 мс. (1,00 видеокадр)Время предзагрузки промежутка : 500 мс.


Внимание! AdBlock блокирует показ скриншотов, все вопросы к разработчикам )))
Трекер:  [ 04-Янв-2018 16:30 ]

  

Скачать .torrent

Размер .torrent файла 15 KB


Размер: 1.46 GB
Хэш (hash) релиза: 1d187491a47ef5ad2367fbc6b5a0c4a84c689e0d
Подписка на обновления:

Торренты, похожие на Пит и его дракон Petes Dragon скачать торрент

Форум Название Автор Размер S L Добавлен
Зарубежные фильмы до 2016 ·· Пит и его дракон / Pete's Dragon (Дэвид Лоури / David Lowery) [2016, США, Фэнтези, боевик, комедия, приключения, семейный, DVD9] R5 Dub + Sub Rus + Original Eng Galfimbul 73254645766.82 GB 0 0 1525550525

23:02

5-Май-18

Зарубежные фильмы до 2016 ·· Пит и его дракон / Pete's Dragon (Дэвид Лоури / David Lowery) [2016, США, фэнтези, приключения, семейный, BDRip 720p] Dub + Sub Rus, Eng + Original Eng Galfimbul 53959739465.03 GB 0 0 1481045389

20:29

6-Дек-16

Трейлеры и дополнительные материалы ·· Пит и его Дракон / Pete's Dragon (Дэвид Лоури) [2016, Фэнтези | Приключения | Семейный, BDRip 720p] дополнительные материалы Galfimbul 965021327920 MB 0 0 1480157979

13:59

26-Ноя-16

Зарубежные фильмы до 2016 ·· Пит и его дракон / Pete's Dragon (Дэвид Лоури / David Lowery) [2016, США, фэнтези, приключения, семейный, BDRip 1080p] Dub + Sub Rus, Eng + Original Eng Galfimbul 98340918099.16 GB 0 0 1479813051

14:10

22-Ноя-16

Зарубежные фильмы 2016-2019 (Новинки зарубежного кино) ·· Пит и его дракон / Pete's Dragon (Дэвид Лоури / David Lowery) [2016, США, Фэнтези, приключения, семейный, HDRip] Dub + Original Eng Galfimbul 22051573762.05 GB 0 0 1479792704

08:31

22-Ноя-16

Зарубежные фильмы 2016-2019 (Новинки зарубежного кино) ·· Пит и его дракон / Pete's Dragon (Дэвид Лоури / David Lowery) [2016, США, фэнтези, приключения, семейный, BDRip-AVC] Dub + Original + Sub (rus, eng) Galfimbul 16985562361.58 GB 0 0 1479792700

08:31

22-Ноя-16

Зарубежные фильмы 2016-2019 (Новинки зарубежного кино) ·· Пит и его дракон / Pete's Dragon (Дэвид Лоури / David Lowery) [2016, США, Фэнтези, приключения, семейный, BDRip] Dub (Лицензия) Galfimbul 15677340111.46 GB 0 0 1479792695

08:31

22-Ноя-16

Зарубежные фильмы 2016-2019 (Новинки зарубежного кино) ·· Пит и его дракон / Pete's Dragon (Дэвид Лоури / David Lowery) [2016, США, фэнтези, приключения, семейный, HDRip] Dub Galfimbul 782782464747 MB 0 0 1479792690

08:31

22-Ноя-16

Зарубежные фильмы 2016-2019 (Новинки зарубежного кино) ·· Пит и его дракон / Pete's Dragon (Дэвид Лоури / David Lowery) [2016, США, Фэнтези, приключения, семейный, Blu-Ray EUR 1080p] Лицензия Galfimbul 4110251688338.28 GB 0 0 1479786045

06:40

22-Ноя-16

Зарубежные фильмы 2016-2019 (Новинки зарубежного кино) ·· Пит и его дракон / Pete's Dragon (Дэвид Лоури) [2016, Фэнтези, приключения, семейный, HDRip] Лицензия Galfimbul 782601306746 MB 0 0 1479620837

08:47

20-Ноя-16

Зарубежные фильмы 2016-2019 (Новинки зарубежного кино) ·· Пит и его дракон / Pete's Dragon (Дэвид Лоури) [2016, Фэнтези, приключения, семейный, HDRip] Лицензия Galfimbul 15671799861.46 GB 0 0 1479613191

06:39

20-Ноя-16

Зарубежные фильмы 2016-2019 (Новинки зарубежного кино) ·· Пит и его дракон / Pete's Dragon (Дэвид Лоури) [2016, Фэнтези, приключения, семейный, BDRip 720p] Лицензия Galfimbul 63351347805.9 GB 0 0 1479605994

04:39

20-Ноя-16

Зарубежные фильмы 2016-2019 (Новинки зарубежного кино) ·· Пит и его дракон / Pete's Dragon (Дэвид Лоури) [2016, Фэнтези, приключения, семейный, BDRip 1080p] Лицензия Galfimbul 103877270409.67 GB 0 0 1479605986

04:39

20-Ноя-16

Зарубежные фильмы 2016-2019 (Новинки зарубежного кино) ·· Пит и его дракон / Pete's Dragon (Дэвид Лоури) [2016, Фэнтези, приключения, семейный, BDRemux 1080p] Лицензия Galfimbul 2888762801626.9 GB 0 0 1479604182

04:09

20-Ноя-16

Зарубежные фильмы 2016-2019 (Новинки зарубежного кино) ·· Пит и его дракон / Pete's Dragon (Дэвид Лоури) [2016, фэнтези, приключения, семейный, CAMRip] Galfimbul 14673326081.37 GB 0 0 1471159040

10:17

14-Авг-16

Зарубежные фильмы 2016-2019 (Новинки зарубежного кино) ·· Пит и его дракон / Pete's Dragon (2016) BDRip от Kaztorrents | КПК | Лицензия Galfimbul 692741184661 MB 0 0 1479800763

10:46

22-Ноя-16

Еще никто не оставлял запись к записи скачать торрент Пит и его дракон Petes Dragon . Будь первым!

!Обратная связь