Скачать через торрент Сто к одному Фильм бесплатно в хорошем качестве torrent

Скачивайте на UnionPeer.org фильмы через торрент без регистрации. Новинки кино в хорошем качестве через торрент. На UnionPeer.org можно скачать через торрент фильмы 2014 и 2015 годов. Самые новые фильмы.

Скачать торрент Сто к одному бесплатно через .torrent фильм мультфильм сериал

Если у вас наблюдаются проблемы со скриншотами, переходом по ссылками, скачиванием торрентов - проблемы в блокировщике рекламы AdBlock. #хорошегоДня!


Статистика раздачи
Размер:  2.68 GB   |    Зарегистрирован:  1 месяц 17 дней   |    .torrent скачан:  23 раза   |   
Раздают:  1  
   
Загрузка...
 
Автор Сообщение

Galfimbul

avatar Galfimbul


Сто к одному

Дата/Год выпуска: 2018
Страна: Россия
Жанр: телеигра
Продолжительность: 4x40 минут
Перевод: Не требуется
Русские субтитры: нет

Оригинальная аудиодорожка: русский
Ведущий: Александр Гуревич
Телеканал: Россия-1Описание: "О чем спрашивает юноша, желая познакомиться с девушкой?", "Чему удивляется иностранец в России?" – невозможно найти какие-то единственно правильные ответы на подобные вопросы. Потому что сколько людей, столько и мнений. А цель игры "Сто к одному" – угадать наиболее распространенные ответы, которые дали случайные прохожие. А эти ответы порой бывают не только забавны, но и непредсказуемы. Ну, кто бы мог подумать, что на вопрос "Кто поддерживает порядок в стране?" десять человек из ста опрошенных ответят совершенно одинаково: "Дворники!"? Программа стала финалистом национального телевизионного конкурса "ТЭФИ-2000".Сэмпл: https://www.sendspace.com/file/q42jh2

качество: DVB
формат: TS/M2TS
Видео: MPEG4 Video (H264) 720x576 (16:9) ~2 000kbps 25fps
Аудио: MP3 192kbps 48kHz 2ch
01. "Уральские пельмени" против "Сафроновы и Ко"*
02. "Гаркалинцы" против "Верю!"*
03. "Иллюзионисты" против "Кастинг"
04. "Команда Жулина" против "Без фанеры"*


Некоторые выпуски программы "Сто к одному" сопровождаются скрытыми субтитрами, в списке выпусков они обозначены звездочкой*.
Для вывода субтитров на экран вам понадобится программа VLC media player (см. скриншоты выше).
Кнопка [1] включает отображение телетекста. В поле [3] необходимо ввести номер страницы (888). Нажмите кнопку [2] для того, чтобы вокруг текста появилась черная рамка как на скриншоте.
GeneralID : 1 (0x1)Complete name : F:\Мои раздачи\Телепрограммы\Сто к одному (2018). Пакет 1\Sto.k.Odnomu.01.tsFormat : MPEG-TSFile size : 637 MiBDuration : 41 min 0 sOverall bit rate mode : VariableOverall bit rate : 2 170 kb/s

VideoID : 5026 (0x13A2)Menu ID : 1 (0x1)Format : AVCFormat/Info : Advanced Video CodecFormat profile : High@L3Format settings, CABAC : YesFormat settings, ReFrames : 4 framesCodec ID : 27Duration : 41 min 0 sBit rate : 1 869 kb/sWidth : 720 pixelsHeight : 576 pixelsDisplay aspect ratio : 16:9Frame rate : 25.000 FPSStandard : ComponentColor space : YUVChroma subsampling : 4:2:0Bit depth : 8 bitsScan type : InterlacedScan type, store method : Separated fieldsScan order : Top Field FirstBits/(Pixel*Frame) : 0.180Stream size : 548 MiB (86%)Color range : LimitedColor primaries : BT.601 PALTransfer characteristics : BT.470 System B, BT.470 System GMatrix coefficients : BT.601

AudioID : 5027 (0x13A3)Menu ID : 1 (0x1)Format : MPEG AudioFormat version : Version 1Format profile : Layer 2Codec ID : 3Duration : 41 min 0 sBit rate mode : ConstantBit rate : 192 kb/sChannel(s) : 2 channelsSampling rate : 48.0 kHzCompression mode : LossyStream size : 56.3 MiB (9%)Language : English

TextID : 5031 (0x13A7)-888Menu ID : 1 (0x1)Format : Teletext SubtitleLanguage : Russian

OtherID : 5031 (0x13A7)-100Menu ID : 1 (0x1)Format : TeletextLanguage : Russian


Трекер:  [ 08-Янв-2018 12:42 ]

  

Скачать .torrent

Размер .torrent файла 14 KB


Размер: 2.68 GB
Хэш (hash) релиза: 65088f01405ee9091165da0658062644f64e94fc
Подписка на обновления:

Торренты, похожие на Сто к одному скачать торрент

Форум Название Автор Размер S L Добавлен
Развлекательные телепередачи и шоу ·· Сто к одному (10.12.2016) [2016, телеигра, HDTV 1080i] Galfimbul 28936674242.69 GB 0 0 1497042110

00:01

10-Июн-17

Развлекательные телепередачи и шоу ·· Сто к одному (11.12.2016) [2016, телеигра, HDTV 1080i] Galfimbul 27442775482.56 GB 0 0 1481475207

19:53

11-Дек-16

Развлекательные телепередачи и шоу ·· Сто к одному (04.12.2016) [2016, телеигра, HDTV 1080i] Galfimbul 28314134802.64 GB 0 0 1480871565

20:12

4-Дек-16

Развлекательные телепередачи и шоу ·· Сто к одному (03.12.2016) [2016, телеигра, HDTV 1080i] Galfimbul 29934328202.79 GB 0 0 1480792321

22:12

3-Дек-16

Развлекательные телепередачи и шоу ·· Сто к одному (27.11.2016) [2016, телеигра, HDTV 1080i] Galfimbul 27255286842.54 GB 0 0 1480248785

15:13

27-Ноя-16

Развлекательные телепередачи и шоу ·· Сто к одному (26.11.2016) [2016, телеигра, HDTV 1080i] Galfimbul 27868768442.6 GB 0 0 1480161420

14:57

26-Ноя-16

Развлекательные телепередачи и шоу ·· Сто к одному (20.11.2016) [2016, телеигра, HDTV 1080i] Galfimbul 32975365443.07 GB 0 0 1479649327

16:42

20-Ноя-16

Развлекательные телепередачи и шоу ·· Сто к одному (19.11.2016) [2016, телеигра, HDTV 1080i] Galfimbul 28626498682.67 GB 0 0 1479647247

16:07

20-Ноя-16

Развлекательные телепередачи и шоу ·· Сто к одному (13.11.2016) [2016, телеигра, HDTV 1080i] Galfimbul 29234588442.72 GB 0 0 1479051977

18:46

13-Ноя-16

Развлекательные телепередачи и шоу ·· Сто к одному (12.11.2016) [2016, телеигра, HDTV 1080i] Galfimbul 27579024722.57 GB 0 0 1478951924

14:58

12-Ноя-16

Развлекательные телепередачи и шоу ·· Сто к одному (06.11.2016) [2016, телеигра, HDTV 1080i] Galfimbul 30552101842.85 GB 0 0 1478459312

22:08

6-Ноя-16

Развлекательные телепередачи и шоу ·· Сто к одному (05.11.2016) [2016, телеигра, HDTV 1080i] Galfimbul 27910824042.6 GB 0 0 1478371585

21:46

5-Ноя-16

Развлекательные телепередачи и шоу ·· Сто к одному (30.10.2016) [2016, телеигра, HDTV 1080i] Galfimbul 26999732802.51 GB 0 0 1477815536

11:18

30-Окт-16

Развлекательные телепередачи и шоу ·· Сто к одному (29.10.2016) [2016, телеигра, HDTV 1080i] Galfimbul 25613465922.39 GB 0 0 1477748106

16:35

29-Окт-16

Развлекательные телепередачи и шоу ·· Сто к одному (22.10.2016) [2016, телеигра, HDTV 1080i] Galfimbul 28709874802.67 GB 0 0 1477256677

00:04

24-Окт-16

Развлекательные телепередачи и шоу ·· Сто к одному (23.10.2016) [2016, телеигра, HDTV 1080i] Galfimbul 29553598122.75 GB 0 0 1477256653

00:04

24-Окт-16

Развлекательные телепередачи и шоу ·· Сто к одному (16.10.2016) [2016, телеигра, HDTV 1080i] Galfimbul 31643618562.95 GB 0 0 1476624661

16:31

16-Окт-16

Развлекательные телепередачи и шоу ·· Сто к одному (15.10.2016) [2016, телеигра, HDTV 1080i] Galfimbul 28696378282.67 GB 0 0 1476530319

14:18

15-Окт-16

Развлекательные телепередачи и шоу ·· Сто к одному (09.10.2016) [2016, телеигра, HDTV 1080i] Galfimbul 26729802402.49 GB 0 0 1476004913

12:21

9-Окт-16

Еще никто не оставлял запись к записи скачать торрент Сто к одному . Будь первым!

!Обратная связь