Скачать через торрент Новый год на Беларусь 1 Премьеры Нового Года Фильм бесплатно в хорошем качестве torrent

Скачивайте на UnionPeer.org фильмы через торрент без регистрации. Новинки кино в хорошем качестве через торрент. На UnionPeer.org можно скачать через торрент фильмы 2014 и 2015 годов. Самые новые фильмы.

Скачать торрент Новый год на Беларусь 1 Премьеры Нового Года бесплатно через .torrent фильм мультфильм сериал

Статистика раздачи
Размер:  2.32 GB   |    Зарегистрирован:  10 месяцев   |    .torrent скачан:  28 раз   |   
Раздают:  1  
   
загрузка...
 
Автор Сообщение

Galfimbul

avatar Galfimbul


Новый год на Беларусь 1 / Премьеры Нового Года

Дата выпуска: 31 декабря 2017
Страна: Беларусь

Жанр: музыкальное шоу
Продолжительность: 02:09:39
Перевод: Не требуется
Телеканал: Беларусь 1

Описание: В новогоднюю ночь телеканалы "Беларусь 1" и "Беларусь 24" покажут новогодний концерт, подготовленный медиахолдингом Белтелерадиокомпании. Выступят на нем Тео, Ольга Рыжикова, Инна Афанасьева, Анатолий Ярмоленко и другие.Качество: DVB
Формат: MKV

Видео: AVC (H.264), 720x576@785x576 (4:3), анаморф, 25 fps, 2259 kbps
Аудио: MP2, 256 kbps, 2 channels, 48 kHz
GeneralUnique ID : 130012979725849902480803488170806004916 (0x61CF96CE0840E3F38E09163EF65ECCB4)Complete name : D:\Work\Video\Новый год на Беларусь 1 (31.12.2017).mkvFormat : MatroskaFormat version : Version 2File size : 2.32 GiBDuration : 2 h 9 minOverall bit rate : 2 566 kb/sWriting application : Lavf54.63.104Writing library : Lavf54.63.104

VideoID : 1Format : AVCFormat/Info : Advanced Video CodecFormat profile : Main@L3Format settings, CABAC : YesFormat settings, ReFrames : 4 framesCodec ID : V_MPEG4/ISO/AVCDuration : 2 h 9 minBit rate : 2 259 kb/sWidth : 720 pixelsHeight : 576 pixelsDisplay aspect ratio : 4:3Original display aspect ratio : 4:3Frame rate mode : ConstantFrame rate : 25.000 FPSStandard : PALColor space : YUVChroma subsampling : 4:2:0Bit depth : 8 bitsScan type : MBAFFScan type, store method : Separated fieldsScan order : Top Field FirstBits/(Pixel*Frame) : 0.218Stream size : 2.05 GiB (88%)Default : NoForced : NoColor range : LimitedColor primaries : BT.601 PALTransfer characteristics : BT.470 System B, BT.470 System GMatrix coefficients : BT.601

AudioID : 2Format : MPEG AudioFormat version : Version 1Format profile : Layer 2Codec ID : A_MPEG/L2Codec ID/Hint : MP2Duration : 2 h 9 minBit rate mode : ConstantBit rate : 256 kb/sChannel(s) : 2 channelsSampling rate : 48.0 kHzCompression mode : LossyStream size : 237 MiB (10%)Language : EnglishDefault : YesForced : No


Трекер:  [ 08-Янв-2018 18:42 ]

  

Скачать .torrent

Размер .torrent файла 12 KB


Размер: 2.32 GB
Хэш (hash) релиза: 61cfbffb886e0265fa4ab6ba0ec042af2ac54642
Подписка на обновления:

Еще никто не оставлял запись к записи скачать торрент Новый год на Беларусь 1 Премьеры Нового Года . Будь первым!

!Обратная связь