Скачать порно через торрент Полная Коллекция Эротических и Документальных фильмов от студии Penthouse UnionPeer.org бесплатно онлайн HD качество

Скачать новое порно 2015, 2014 новинки через торрент UnionPeer.org

Порно торрент бесплатно ЮнионПир.орг

Статистика раздачи
Размер:  90.69 GB   |    Зарегистрирован:  3 года 8 месяцев   |    .torrent скачан:  1372 раза   |   
Раздают:  1   Качают:  1  
   
 
Автор Сообщение

Galfimbul

avatar Galfimbul


Полная Коллекция Эротических и Документальных фильмов от студии Penthouse (99 фильмов)



Годы производства: 1972-2012 гг.
Страна: USA
Жанр: Documentary, Striptease, Erotic, Adult, Drama
Число фильмов: 99
Продолжительность: Разная
Режиссеры: Paul Nevitt, Nicholas Guccione, Bert Rhine и другие
Студия: Penthouse

Доп.Информация: Раздача содержит в себе все Эротические и Документальные фильмы не HD-качества уже выложенные на трекере (Кроме следующих: Hot & Sexy / Горячие и Сексуальные, Stripping Diva / Стриптиз Див, а также нескольких фильмов из серии Penthouse Pet Play-Off And Year.) и один новый фильм - Centerfold Auditions. Также в корневую папку раздачи включил папку из этой - http://.../forum/viewtopic.php?t=1214670 Название папки и фильмов оставил как есть, но убрал и поместил в корневую папку раздачи фильм Pet Of The Year Winners 1998, который переименовал в Pet of the Year & Friends (его правильное название).

Привёл в человеческий вид названия всех фильмов, включая некоторые фильмы скачанные с трекера. Скринлисты ко всем фильмам сделал на 64 кадра, включая фильмы из папки - Penthouse - Pet Of The Year Play-Off And Winners (прежние на 32 удалил). Постарался найти в интернете наибольшие по размеру и качеству постеры ко всем фильмам и выложил в оформлении. Ко всем фильмам в HD сделаны скриншоты.

Раздавать буду вечно, как и поддерживать живое состояние скринлистов, скриншотов и постеров ко всем фильмам. Не знаю как скоро, но обязательно обновлю раздачу в будущем, заменив те фильмы, что есть, на лучшие по качеству и добавив новые. Скринлисты и постеры всех фильмов включены в папку раздачи.
Год производства: 1991 г.
Страна: USA
Жанр: Erotic
Продолжительность: 50:39
Режиссер: Paul Nevitt
Студия: Penthouse
В ролях: Lynn Johnson, Amy Lynn

Описание: Which of these magnificent photographs in the magazine spread Penthouses, you would choose as a Pet Year? As the competition - it is hot, perhaps you should throw really close look. Then look snova.I again. Smakov erotic appeal Jisel ... dropped out of sight, private secret mysterious Lynn ... observe unpredictable Amy in her most rebellious. Catch them all in their most playful whims ... and the best moments. Who will be the Year of our pets? We defy
You decide if you can. These ladies will do about anything, to win your vote.

Качество видео: VHSRip
Формат видео: AVI
Видео кодек: DivX
Аудио кодек: MP3
Видео: DivX 5, 640x480 (4/3), 29,97 fps, 1500 kbps, 0.163 Qf
Аудио: MP3, 2 ch, 48 kHz, 128 kbps
Год производства: 1992 г.
Страна: USA
Жанр: Erotic
Продолжительность: 59:25
Режиссер: Paul Nevitt
Студия: Penthouse
В ролях: Theresa Presley, Mahalia Maria

Описание: Just try to tame these Pets!
Julie, Mahalia, and Theresa are three Penthouse Pets who are going to work their hardest to get your vote for Penthouse Pet of the Year. They''ll take you to the edge of your fantasies and beyond with their bold and tantalizing glimpses into their private world. Whether you pick the sultry Julie, the erotic Mahalia, or the sexy Theresa, you''ll be the one who comes out a winner!

Качество видео: DVDRip
Формат видео: WMV
Видео кодек: WMV3
Аудио кодек: WMA2
Видео: WMV3, 640x480 (4/3), 25 fps, 1704 kbps, 0.222 Qf
Аудио: WMA2, 2 ch, 44,1 kHz, 160 kbps
Год производства: 1993 г.
Страна: USA
Жанр: Erotic
Продолжительность: 54:03
Режиссер: Paul Nevitt
Студия: Penthouse
В ролях: Jami Dion (Dahlia Grey), Tracy Wolf, Stevie Jean

Описание: Unbelievable beauties strut, stretch and strip for you in this collecton of Penthouse''s best

Качество видео: DVDRip
Формат видео: MP4
Видео кодек: AVC
Аудио кодек: AAC
Видео: AVC, 720x480 (4:3), 29.970 fps, 4 036 Kbps, 0.390 Qf
Аудио: AAC LC, 48.0 KHz, 1 ch, 192 Kbps
Год производства: 1994 г.
Страна: USA
Жанр: Erotic
Продолжительность: 52:39
Режиссер: Paul Nevitt, Suze Randall
Студия: Penthouse
В ролях: Gina LaMarca, Natalie Smith, Seana, Sharon

Описание: Alluring, inviting, exotic--our 1994 Pet of the Year Play-Off contestants are all that and more! But mere words don''t do justice to what these tantalizing models bring to this special video.

Качество видео: DVDRip
Формат видео: AVI
Видео кодек: XviD
Аудио кодек: MP3
Видео: XviD, 608x448 (4/3), 23, 976 fps, 1556 kbps, 0.238 Qf
Аудио: MP3, 2 ch, 48 kHz, 125 kbps VBR
Год производства: 1995 г.
Страна: USA
Жанр: Erotic
Продолжительность: 56:30
Режиссер: Paul Nevitt
Студия: Penthouse
В ролях: Tiffany Burlingame, Levena Holmes, Andi Sue Irwin, Bonita Saint.

Описание: Another bevy of beautiful Penthouse Pets pose in provocative and playful settings, competing for the title of Pet of the Year.

Качество видео: VHSRip
Формат видео: MPEG-4 Visual
Видео кодек: DivX
Аудио кодек: MP3
Видео: MPEG-4 Visual (DivX), 320x240 (4/3), 29, 97 fps, 1150 kbps, 0.500 Qf
Аудио: MP3, 2 ch, 22,05 kHz, 128 kbps
Год производства: 1996 г.
Страна: USA
Жанр: Erotic
Продолжительность: 58:32
Режиссер: Lucas Riley
Студия: Penthouse
В ролях: Leigh Anderson, Elizabeth Hilden, Andi Sue Irwin, Lydia Schone, Heidi Staley

Описание: На свете так много красивых женщин, но лишь одна из них может надеть на себя корону Любимицы года «Пентхауза». Кто же станет победительницей Игр Любимиц этого года? Каждая из этих чувственных девушек сделает все, чтобы получить Ваш голос, и покажет вам все свои тайные сокровища (скрытые прелести). Когда вы посмотрите такие волнующие эротические сюжеты, у Вас не останется и тени сомнения, что эти потрясающие женщины заслуживают звания Любимицы года. И ничего страшного, если Ваш выбор падет на всех сразу!

Качество видео: VHSRip
Формат видео: MPEG-4 Visual
Видео кодек: XviD
Аудио кодек: MP3
Видео: MPEG-4 Visual (XviD), 640x480 (4/3), 29,97 fps, 1854 kbps, 0.201 Qf
Аудио: MP3, 2 ch, 48 kHz, 128 kbps
Год производства: 1997 г.
Страна: USA
Жанр: Erotic
Продолжительность: 55:49
Режиссер: Lucas Riley
Студия: Penthouse
В ролях: Diane Fowler, Julie Garvey, Lexus Locklear, Paige Summers

Описание: More Penthouse hijinks with the latest catch of Pets competing for the coveted title of Pet of the Year.

Качество видео: DVDRip
Формат видео: AVI
Видео кодек: XviD
Аудио кодек: AC-3
Видео: XviD, 640x480 (4/3), 29,97 fps, 1771 kbps, 0.192 Qf
Аудио: AC-3, 2 ch, 48 kHz, 224 kbps
Год производства: 1998 г.
Страна: USA
Жанр: Erotic
Продолжительность: 1:00:29
Режиссер: Nicholas Guccione
Студия: Penthouse
В ролях: Jessica James, Heather St. James, Samantha Michaels, Tania Russof, Nikie St. Gilles

Описание: Очаровательные девушки обнажаются перед вами в самых соблазительных ракурсах.

Качество видео: DVDRip
Формат видео: MPEG
Видео кодек: XviD
Аудио кодек: AC3
Видео: MPEG-4 Visual (XviD), 640x480 (4/3), 29,97 fps, 1499 kbps, 0.163 Qf
Аудио: AC3, 2 ch, 48 kHz, 256 kbps
Год производства: 2001 г.
Страна: USA
Жанр: Erotic
Продолжительность: 56:56
Режиссер: Nicholas Guccione
Студия: Penthouse
В ролях: Zdenka ,Samantha Stewart, Angelica Costello, Vicca, Miel Angel

Описание: Don''t forget to cast your vote! Five gorgeous Penthouse Pets compete for the coveted title of Penthouse Pet of the Year 2001. Who will follow in the footsteps of the lovely Juliet Cariaga? We''ll let you be the judge as these beauties strut their stuff for our cameras. Samantha Stewart, Angelica Costello, Vicca, Miel Angel, and Zdenka show off their best assets and tell you all their fantasies and secrets. "Penthouse Pet of the Year Play-Off 2001," the world''s most desirable women in a timelessly sensual setting.

Качество видео: WebRip
Формат видео: Windows Media
Видео кодек: wmv2
Аудио кодек: WMA
Видео: wmv2, 1280x720 (16/9), 24 fps, 4088 kbps, 0.185 Qf
Аудио: WMA2, 2 ch, 48 kHz, 64 kbps
Год производства: 2003 г.
Страна: USA
Жанр: Erotic
Продолжительность: 58:22
Режиссер: Nicholas Guccione
Студия: Penthouse
В ролях: Suzette Spencer, Linn Thomas, Aria Giovanni, Sunny Leone, Ava Vincent, and Devon

Описание: Are you ready for some serious Penthouse Pets? In this year''s play-off show, we have these lovely ladies competing for the coveted title of Pet of the Year 2003: Suzette Spencer, Linn Thomas, Aria Giovanni, Sunny Leone, Ava Vincent, and Devon. Basically, we''re talking "wall to wall" babes... and it''s all good!

Качество видео: WebRip
Формат видео: Windows Media
Видео кодек: wmv2
Аудио кодек: wma2
Видео: wmv2, 1280x720 (16/9), 24 fps, 5240 kbps, 0.237 Qf
Аудио: WMA2, 2 ch, 48 kHz, 64 kbps
Год производства: 2004 г.
Страна: USA
Жанр: Erotic
Продолжительность: 01:01:49
Режиссер: Nicholas Guccione
Студия: Penthouse
В ролях: Stephanie Wood, Kyli Ryan ,Cheyenne Silver ,Courtney Taylor ,Victoria Zdrok

Описание: We had the pleasure of capturing these five gorgeous Pets at the Penthouse Mansion in New York City, and they didn''t hesitate to bare all for your viewing pleasure! Enjoy Stephanie Wood (September 2001), Cheyenne Silver (December 2001), Kyli Ryan (February 2002), Courtney Taylor (March 2002) and Victoria Zdrok (June 2002) as they vie to capture Pet of the Year honors.

Качество видео: DVDRip
Формат видео: MPEG
Видео кодек: MPEG1
Аудио кодек: MP2
Видео: MPEG1, 352x240 (1.564/1), 29,97 fps, 1074 kbps VBR, 0.424 Qf
Аудио: MP2, 2 ch, 44,1 kHz, 224 kbps
Год производства: 2005 г.
Страна: USA
Жанр: Erotic
Продолжительность: 57:15
Режиссер: Bert Rhine
Студия: Penthouse
В ролях: Lanny Barbie, Jassie Lewis, Natalia Cruze, and Martina Warren

Описание: Four gorgeous Penthouse Pets - Lanny Barbie, Jassie Lewis, Natalia Cruze, and Martina Warren - compete for the title of Pet of the Year. Come along as these sultry ladies bare all at our Beverly Hills mansion where they stop at nothing to impress you. You won''t believe your eyes as these Pets take passion to a new level with themselves and one another.

Качество видео: WebRip
Формат видео: Windows Media
Видео кодек: WMV2
Аудио кодек: WMA2
Видео: WMV2, 1280x720 (16/9), 24 fps, 4535 kbps, 0.205 Qf
Аудио: WMA2, 2 ch, 48 kHz, 64 kbps
Год производства: 1992 г.
Страна: USA
Жанр: Erotic
Продолжительность: 37:21
Режиссер: Paul Nevitt
Студия: Penthouse

В ролях: Brandy Ledford, Amy Lynn Baxter

Описание: Judge for yourself what it takes to be a Penthouse Pet of the Year, as Brandy takes us into her private world of sultry fantasies and revealing secrets. She''s erotic and unabashed...the ultimate Penthouse Centerfold. And if that’s not enough to get your pulse racing, we’ve added another long and loving look at runner-up Amy Lynn at their sexiest best. She’s unpredictable and every inch a winner.

Качество видео: DVDRip
Формат видео: WMV
Видео: AVC, 720x480 (4:3), 29.970 fps, 4 044 Kbps (0.390 bit/pixel)
Аудио: AAC LC, 48.0 KHz, 1 ch, 192 Kbps, VBR
Год производства: 1993 г.
Страна: USA
Жанр: Erotic
Продолжительность: 44:12
Режиссер: Paul Nevitt
Студия: Penthouse

В ролях: Julie Strain

Описание: Penthouse Video presents our crowned jewel, Pet of the Year Julie Strain. Seductive and alluring, she''s what you think of when you think of Penthouse. If you thought her appearance in the Pet of the Year Play-Off was wild, wait until you see her celebrate her crowning as our Queen!

Качество видео: DVDRip
Формат видео: WMV
Видео кодек: WMV3
Аудио кодек: WMA2
Видео: WMV3, 640x480 (4/3), 25 fps, 1704 kbps, 0.222 Qf
Аудио: WMA2, 2 ch, 44,1 kHz, 160 kbps
Год производства: 1994 г.
Страна: USA
Жанр: Erotic
Продолжительность: 55:10
Режиссер: Paul Nevitt
Студия: Penthouse

В ролях: Sasha Vinni, Leslie Glass

Описание: Never-before-released footage of Penthouse''s favorite Pets! Behold the winners! Join us in a tantalizing journey of erotic exploration as Penthouse presents the ultimate in video centerfolds: Pet of the Year and Russian native Sasha Vinni and statuesque Runner-Up Leslie Glass. Never-before-seen film on unforgettable women. Only from Penthouse.

Качество видео: DVDRip
Формат видео: WMV
Видео кодек: WMV3
Аудио кодек: WMA2
Видео: WMV3, 640x480 (4/3), 25 fps, 1576 kbps, 0.205 Qf
Аудио: WMA2, 2 ch, 44,1 kHz, 160 kbps
Год производства: 1995 г.
Страна: USA
Жанр: Erotic
Продолжительность: 45:26
Режиссер: Philip Mond
Студия: Penthouse

В ролях: Gina LaMarca, Natalie Smith

Описание: The wait is over! Gorgeous Pet of the Year, Miss Gina LaMarca, is eager to show why she was named to Penthouse''s highest honor. We have assembled brand-new centerfold footage of Gina that won''t leave a doubt in your mind why she is our new Pet of the Year! And as a special added bonus, we''ve included a special film treat of Pet of the Year Runner-Up Natalie Smith in all her erotic splendor.

Качество видео: DVDRip
Формат видео: VC-1
Видео кодек: WMV
Аудио кодек: WMA2
Видео: VC-1 (WMV3), 640x480 (4/3), 29,97 fps, 2000 kbps, 0.217 Qf
Аудио: WMA2, 2 ch, 48 kHz, 64 kbps
Год производства: 2000 г.
Страна: USA
Жанр: Erotic
Продолжительность: 01:01:59
Режиссер: Nicholas Guccione
Студия: Penthouse

В ролях: Aimee Sweet, Juliet, Alexis Winston

Описание: Shakespeare knew it and now we''re letting you know, Juliet, Penthouse Pet of the Year 2000, is the most beautiful woman in the world! Sexy Juliet plays show and tell in this collection of steamy vignettes and shows us why she is most deserving of this exclusive title. You''ll get to know Juliet in a way you could only dream of before. Beautiful Penthouse Pets Aimee Sweet and Alexis Winston join Juliet in this hot and sexy video that will leave you breathless. Personally, we can''t think of a better way to start a new millennium, can you?

Качество видео: WebRip
Формат видео: Windows Media
Видео кодек: WMV2
Аудио кодек: WMA2
Видео: WMV2, 1280x720 (16/9), 24 fps, 5680 kbps, 0.257 Qf
Аудио: WMA2, 2 ch, 48 kHz, 64 kbps
Год производства: 2001 г.
Страна: USA
Жанр: Erotic
Продолжительность: 1:11:58
Режиссер: Nicholas Guccione
Студия: Penthouse

В ролях: Zdenka Podkapova, Vicca, Melissa Ann

Описание: Lovely blonde Zdenka - the Penthouse Pet of the Year 2001 - completely loses her inhibitions. On a regular basis. Fellow Pets Vicca (more tea, Vicca?) and Melissa Ann also put in a (naked) appearance.

Качество видео: DVDRip
Формат видео: MP4
Видео: AVC, 720x480 (4:3), 29.970 fps, 4 037 Kbps (0.390 bit/pixel)
Аудио: AAC LC, 48.0 KHz, 2 ch, 224 Kbps, VBR
Год производства: 2002 г.
Страна: USA
Жанр: Erotic
Продолжительность: 54:02
Режиссер: Nicholas Guccione
Студия: Penthouse

В ролях: Tera Patrick, Kyla Cole, Megan Mason, Nicole Marciano, Cristi Taylor, Zdenka

Описание: Judge for yourself what it takes to be a Penthouse Pet of the Year, as Brandy takes us into her private world of sultry fantasies and revealing secrets. She''s erotic and unabashed...the ultimate Penthouse Centerfold. And if that’s not enough to get your pulse racing, we’ve added another long and loving look at runner-up Amy Lynn at their sexiest best. She’s unpredictable and every inch a winner.

Качество видео: DVDRip
Формат видео: AVI
Видео кодек: DivX
Аудио кодек: MP3
Видео: DivX 4, 640x480 (4/3), 29,97 fps, 856 kbps, 0.093 Qf
Аудио: MP3, 2 ch, 44,1 kHz, 192 kbps
Год производства: 2005 г.
Страна: USA
Жанр: Erotic
Продолжительность: 56:15
Режиссер: Bert Rhine
Студия: Penthouse

В ролях: Martina Warren, Jamie Lynn, Jesse Capelli, Ginger Jolie

Описание: 2005 will always be remembered as one of Penthouse Magazine''s finest. Martina Warren was crowned Pet of the Year, and when it came to the selection of the three other Penthouse Pets to appear in her Pet of the Year video, we created one of the most extraordinary ensembles in video history. Selected to appear were Jesse Capelli, Jamie Lynn and Ginger Jolie - a gorgeous collection of sexy ladies who create one of our finest videos ever! You''ll be satisfied in more ways than you can imagine!

Качество видео: DVDRip
Формат видео: AVI
Видео кодек: XviD
Аудио кодек: AC-3
Видео: XviD, 576x432 (4/3), 29,97 fps, 1501 kbps, 0.201 Qf
Аудио: AC-3, 2 ch, 48 kHz, 224 kbps
Год производства: 2006 г.
Страна: USA
Жанр: Erotic
Продолжительность: 57:10
Режиссер: Kelly Holland
Студия: Penthouse

В ролях: Jamie Lynn, Cassia Riley, Ashley Roberts, Rita Faltoyano

Описание: Meet Jamie Lynn, Penthouse Magazine''s 2006 choice for Pet of the Year. Showing viewers why she deserves the crown, Lynn struts her stuff in the company of several equally seductive Penthouse Pets. The sultry ladies cater to their fans'' wildest fantasies as they pose in a variety of sexy and barely there lingerie.

Качество видео: DVDRip
Формат видео: AVI
Видео кодек: XviD
Аудио кодек: MP3
Видео: XviD, 512x384 (4/3), 23,976 fps, 1569 kbps, 0.333 Qf
Аудио: MP3, 2 ch, 48 kHz, 130 kbps VBR
Год производства: 2006 г.
Страна: USA
Жанр: Erotic
Продолжительность: 21:03
Студия: Penthouse

В ролях: Jamie Lynn

Описание: Красивое видео с Jamie Lynn.

Качество видео: WebRip
Формат видео: Windows Media
Видео кодек: WMV2
Аудио кодек: WMA2
Видео: WMV2, 1280x720 (16/9), 24 fps, 5134 kbps, 0.232 Qf
Аудио: WMA2, 2 ch, 48 kHz, 64 kbps
Penthouse - 25th Anniversary Pet of the Year Spectacular / Пентхаус - 25-я Ежегодная Захватывающая Церемония Пет Года

Год производства: 1994 г.
Страна: USA
Жанр: Erotic
Продолжительность: 00:56:33
Режиссер: Chris Hutson
Студия: Penthouse

В ролях: Leigh Anderson, Danielle Deneux, Sheila Kennedy, Brandy Ledford, Avril Lund, Ginger Miller, Cheryl Rixon, Julie Strain, Sasha Vinni, Corinne Wahl

Описание: This tape is a photo review of the first 25 pets of the year with a few videos of others pets and the girl Leigh Anderson as host.Julie Strain is the first pet actual video and she has alot of fans so it is worth it for her also.A few of the pictures of the pets were not included in their origanial pictorials so if you like the first 25 years of Penthouse you should pick it up.

Качество видео: DVDRip
Формат видео: AVI
Видео кодек: DivX
Аудио кодек: ADPCM
Видео: DivX 5, 640x480 (4/3), 25 fps, 1702 kbps, 0.222 Qf
Аудио: ADPCM, 2 ch, 44,1 kHz, 352,8 kbps
Video: DivX 5.x/6.x, 1708 kbps, 25.000 fps
Audio: 0x0002 (ADPCM), 44100Hz, 355 kbps , 2 channel(s)
25th Anniversary Swimsuit Video | Девушки в купальниках
Год производства: 1994 г.
Страна: США | USA
Жанр: Erotic
Продолжительность: 00:58:58
Язык: Английский | English

Режиссер: Richard Boden | Matt Ferro
Студия: Penthouse

В ролях: Julia Ann, Alexis Christian, Bonita Saint, Gina LaMarca, Samantha Phillips, Shannon Steele, Julie Smith, Nicole Broderson, Levena Holmes, Natalie Lennox, Carla Morell, Carmen Morell, Cathleen Raymond, Seana Ryan, Natalie Smith, Dominique St. Croix

Описание: Что может быть лучше, чем отметить 25-ую годовщину Пентхауза с видео в купальниках. Мы собрали 16 красивейших Любимиц Пентхауза, взяли их на самые захватывающие места, одели их в самые модные и скандальные купальники ... и оставили дело за ними. Это видео самое "влажное и необузданое", которое вы когда-либо смотрели.

Качество видео: DVDRip
Формат видео: MP4
Видео: AVC, 720x480 (4:3), 29.970 fps, 4 037 Kbps (0.390 bit/pixel)
Аудио: AAC LC, 48.0 KHz, 1 ch, 192 Kbps, VBR (English)

25-th Anniversary Swimsuit Video (707 MB)
25-th Anniversary Swimsuit Video (871 MB)
General
Format : MPEG-4
Format profile : Base Media / Version 2
Codec ID : mp42
File size : 1.74 GiB
Duration : 58mn 58s
Overall bit rate : 4 229 Kbps
Encoded date : UTC 2016-02-14 18:42:28
Tagged date : UTC 2016-02-14 18:48:32
Video #1
ID : 1
Format : AVC
Format/Info : Advanced Video Codec
Format profile : Main@L3.0
Format settings, CABAC : Yes
Format settings, ReFrames : 2 frames
Codec ID : avc1
Codec ID/Info : Advanced Video Coding
Duration : 58mn 54s
Bit rate mode : Variable
Bit rate : 4 037 Kbps
Maximum bit rate : 12.2 Mbps
Width : 720 pixels
Height : 480 pixels
Display aspect ratio : 4/3
Frame rate mode : Variable
Frame rate : 29.970 fps
Minimum frame rate : 14.985 fps
Maximum frame rate : 29.970 fps
Standard : NTSC
Resolution : 24 bits
Colorimetry : 4:2:0
Scan type : Progressive
Bits/(Pixel*Frame) : 0.390
Stream size : 1.66 GiB (95%)
Encoded date : UTC 2016-02-14 18:42:28
Tagged date : UTC 2016-02-14 18:48:32
Audio #2
ID : 2
Format : AAC
Format/Info : Advanced Audio Codec
Format version : Version 4
Format profile : LC
Format settings, SBR : No
Codec ID : 40
Duration : 58mn 58s
Bit rate mode : Variable
Bit rate : 192 Kbps
Maximum bit rate : 206 Kbps
Channel(s) : 1 channel
Channel positions : C
Sampling rate : 48.0 KHz
Resolution : 16 bits
Stream size : 80.8 MiB (5%)
Title : eng
Language : English
Encoded date : UTC 2016-02-14 18:42:28
Tagged date : UTC 2016-02-14 18:48:32
Audio #3
ID : 3
Format : AAC
Format/Info : Advanced Audio Codec
Format version : Version 4
Format profile : LC
Format settings, SBR : No
Codec ID : 40
Bit rate mode : Constant
Channel(s) : 6 channels
Channel positions : Front: L C R, Rear: L R, LFE
Sampling rate : 48.0 KHz
Resolution : 16 bits
Title : eng
Language : English
Encoded date : UTC 2016-02-14 18:42:28
Tagged date : UTC 2016-02-14 18:42:28
Audio #4
ID : 4
Format : AAC
Format/Info : Advanced Audio Codec
Format version : Version 4
Format profile : LC
Format settings, SBR : No
Codec ID : 40
Bit rate mode : Constant
Channel(s) : 6 channels
Channel positions : Front: L C R, Rear: L R, LFE
Sampling rate : 48.0 KHz
Resolution : 16 bits
Title : eng
Language : English
Encoded date : UTC 2016-02-14 18:42:28
Tagged date : UTC 2016-02-14 18:42:28
Audio #5
ID : 5
Format : AAC
Format/Info : Advanced Audio Codec
Format version : Version 4
Format profile : LC
Format settings, SBR : No
Codec ID : 40
Bit rate mode : Constant
Channel(s) : 6 channels
Channel positions : Front: L C R, Rear: L R, LFE
Sampling rate : 48.0 KHz
Resolution : 16 bits
Title : eng
Language : English
Encoded date : UTC 2016-02-14 18:42:28
Tagged date : UTC 2016-02-14 18:42:28
Audio #6
ID : 6
Format : AAC
Format/Info : Advanced Audio Codec
Format version : Version 4
Format profile : LC
Format settings, SBR : No
Codec ID : 40
Bit rate mode : Constant
Channel(s) : 6 channels
Channel positions : Front: L C R, Rear: L R, LFE
Sampling rate : 48.0 KHz
Resolution : 16 bits
Title : eng
Language : English
Encoded date : UTC 2016-02-14 18:42:28
Tagged date : UTC 2016-02-14 18:42:28
Audio #7
ID : 7
Format : AAC
Format/Info : Advanced Audio Codec
Format version : Version 4
Format profile : LC
Format settings, SBR : No
Codec ID : 40
Bit rate mode : Constant
Channel(s) : 6 channels
Channel positions : Front: L C R, Rear: L R, LFE
Sampling rate : 48.0 KHz
Resolution : 16 bits
Title : eng
Language : English
Encoded date : UTC 2016-02-14 18:42:28
Tagged date : UTC 2016-02-14 18:42:28
Audio #8
ID : 8
Format : AAC
Format/Info : Advanced Audio Codec
Format version : Version 4
Format profile : LC
Format settings, SBR : No
Codec ID : 40
Bit rate mode : Constant
Channel(s) : 6 channels
Channel positions : Front: L C R, Rear: L R, LFE
Sampling rate : 48.0 KHz
Resolution : 16 bits
Title : eng
Language : English
Encoded date : UTC 2016-02-14 18:42:28
Tagged date : UTC 2016-02-14 18:42:28
Audio #9
ID : 9
Format : AAC
Format/Info : Advanced Audio Codec
Format version : Version 4
Format profile : LC
Format settings, SBR : No
Codec ID : 40
Bit rate mode : Constant
Channel(s) : 6 channels
Channel positions : Front: L C R, Rear: L R, LFE
Sampling rate : 48.0 KHz
Resolution : 16 bits
Title : eng
Language : English
Encoded date : UTC 2016-02-14 18:42:28
Tagged date : UTC 2016-02-14 18:42:28
Video: H.264/MPEG-4 AVC, 4233 kbps, 14.985 fps
Audio: mp4a: MPEG-4 AAC LC, 48000Hz, 0 kbps , 6 channel(s)
Penthouse - 30 Pets, 60 Minutes / Пентхаус - 30 любимиц за 60 минут

Год производства: 1999 г.
Страна: USA
Жанр: Erotic
Продолжительность: 00:59:51
Язык: Английский

Режиссер: разные режиссёры
Студия: Penthouse

В ролях: Julie Strain, Amy Lynn Baxter, Brandy Ledford, Janine Lindemulder, Raquel Darian, Gina LaMarca

Описание: Penthouse has reached a very special anniversary...30 years. That''s 30 years of the most tantalizing and exotic models ever presented in the pages of a magazine. To kick off the celebration of this milestone, Penthouse Video has put together a pulsating collection of the best of the best. Thirty loving looks at 30 gorgeous Penthouse Pets, featuring favorites Julie Strain, Amy Lynn, Brandy, Janine Lindemulder, Raquel Darian and Gina LaMarca. You could never find a better way to spend 60 minutes than with 30 Penthouse Pets!

Качество видео: DVDRip
Формат видео: WMV
Видео кодек: Windows Media
Аудио кодек: WMA
Видео: Windows Media Video 9 640x480 29.97fps 2000Kbps
Аудио: Windows Media Audio 48000Hz stereo 64Kbps

Мои раздачи:

Penthouse - Fast Cars Fantasy Women / Пентхаус - Быстрые машины сказочные девушки
Penthouse - Beach Babes / Пентхаус - Пляжные Девочки
Penthouse - Penthouse On Campus / Пентхаус - Пентхаус в университете
Penthouse - 25th Anniversary Swimsuit Video / Пентхаус - 25-ая годовщина - Видео о купальниках

Благодарность в виде коммента продолжает жизнь раздачи!
Video: WMP v9 (VC-1 Simple/Main), 2015 kbps, fps
Audio: 0x0161 (WMA v2), 48000Hz, 64 kbps CBR, 2 channel(s)
All Access / Полный доступ

Год производства: 1996 г.
Страна: USA
Жанр: Erotic
Продолжительность: 00:55:06
Язык: Английский

Студия: Penthouse

В ролях: Leigh Anderson, Julia Ann, Bobbie, Tiffany Burlingamе, Elizabeth Hilden, Gina LaMarca, Julie Morrison, Theresa Presley, Seana Ryan, Veronica Sage, Julie K. Smith, Julie Strain, Nikki Tyler

Описание: Что может дать Вам "Полный доступ"? А как насчёт персонального пропуска в мир классной эротики! Не хотите ли познакомиться поближе кое с кем из Ваших и наших любимец? Не хотите ли узнать, что происходит на площадке в перерывах между съёмками самых знойных сюжетов, когда выключается камера? "Полный доступ" - это Ваш исключительный шанс, мы покажем Вам всё... "Полный доступ" позволит Вам взглянуть изнутри на мир, попасть в который Вы могли лишь мечтать - мир видеоклипов самых суперсексуальных моделей знаменитого журнала "PENTHOUSE".

Качество видео: DVDRip
Формат видео: AVI
Видео кодек: XviD
Аудио кодек: MP3
Видео: 720x408 (16:9), 24 fps, XviD MPEG-4 codec ~2497 Kbps avg, 0.36 bit/pixel
Аудио: 48 kHz, MPEG Layer 3, 2 ch, ~172 kbps avg
Video: XviD ISO MPEG-4, 2490 kbps, 24.000 fps
Audio: 0x0055 MPEG-1 Layer 3, 48000Hz, 173 kbps VBR, 2 channel(s)
All Pet Workout / Все любимицы на разминке

Год выпуска: 1993
Страна: USA
Жанр: erotik
Продолжительность: 00:53:48
Перевод: Отсутствует

Режиссер: Matthew Ferro
Студия: penthouse

В ролях: Robin Brown
Dahlia Grey
Leslie Glass
Natalie Lennox
Susan Napoli
Julie Strain
Mark Pitta

Качество: DVDRip
Формат: AVI
Видео кодек: XviD
Аудио кодек: MPEG Audio (mp3)
Видео: 720x480 (1.50:1) 29.970 fps XviD MPEG-4 2423 kbps avg 0.23 bit/pixel
Аудио: 44.100 kHz MPEG Layer 3 2 ch 128.00 kbps avg
Video: XviD ISO MPEG-4, 2427 kbps, 29.970 fps
Audio: 0x0055 MPEG-1 Layer 3, 44100Hz, 128 kbps CBR, 2 channel(s)
Amazing Amazon Beauties / Изумительные красотки амазонки
Год производства: 1998 г.
Страна: США
Жанр: Erotic
Продолжительность: 00:44:12
Язык: Английский

Режиссер: Morgan Richileau
Студия: Penthouse

В ролях: Kelly Ashton, Barocca, Gia, Pamela, Everett Rodd, Roxy, Taylor St. Clair, Cameron Steel, Julie Strain

Описание: Working late at night, a gorgeous artist searches for inspiration. She finds it in the hot models of Penthouse. Her imagination gets the better of her as her sizzling drawings come to life in a sexy fantasy like no other. Featuring the ultimate amazons, Pet of the Year Julie Strain and Pet of the Month Roxy, Amazing Amazon Beauties takes you on a wild trip through erotic adventures with sensuous beauties you''ve only dreamt of. Are you man enough to take on the Amazing Amazons? There''s only one way to find out.

Качество видео: VHSRip
Формат видео: AVI
Видео кодек: DivX
Аудио кодек: MP3
Видео: AVI, DivX, 640x480, 1 201 Kbps, 29.970 fps
Аудио: MP3, 128 Kbps, 48.0 KHz, 2 channels
Video: DivX 5.x/6.x, 1205 kbps, 29.970 fps
Audio: 0x0055 MPEG-1 Layer 3, 48000Hz, 128 kbps CBR, 2 channel(s)
Beach Babes / Пляжные Девочки

Год производства: 2000 г.
Страна: USA
Жанр: Erotic
Продолжительность: 54:22
Язык: Английский

Режиссер: Nicholas Guccione, Nikie Guccione
Студия: Penthouse

В ролях: Juliet Cariaga, Alexa Lauren, Jacquelin Marie Phillips, Samantha Stewart

Описание: A warm summer breeze is blowing in over a hidden village that sits nestled by the ocean, as Penthouse Pets Samantha Stewart, Alexa Lauren, and Jacqueline Marie Phillips join Penthouse Pet of the year 2000 Juliet Cariage, for a very special day at the beach. Their sexy adventures will make your temperature soar.

Sun, beach, ocean, Penthouse Pets... need we say more?

Качество видео: DVDRip
Формат видео: AVI
Видео кодек: H.264/AVC
Аудио кодек: AC3
Видео: h264 - MPEG-4 AVC 624x480 29.97fps 1549kbps
Аудио: AC3 48000Hz stereo 224kbps

Мои раздачи:
Penthouse - Penthouse On Campus / Пентхаус - Пентхаус в университете
Penthouse - 25th Anniversary Swimsuit Video / Пентхаус - 25-ая годовщина - Видео о купальниках

Лучшая благодарность - это коммент!
Video: H.264/MPEG-4 AVC, 1354 kbps, 29.970 fps
Audio: 0x2000 (Dolby AC3) AC3, 48000Hz, 224 kbps CBR, 2 channel(s)
Behind the Scenes at the Swimsuit Calendar Photo Shoot / Вырезанное в Календарных Фотоснимках Купальников

Год производства: 1998 г.
Страна: USA
Жанр: Erotic
Продолжительность: 53:01
Режиссер: James Hoffer
Студия: Penthouse

В ролях: Pamela Petrokova, Paige Summers, Heather Kelly, Chloe Jones, Leslie Glass, Alex Taylor, Amy Lynn, Stacy Moran

Описание: A behind-the-scenes look at the making of the Penthouse Swimsuit Calendar. Twelve Penthouse Pets show off the tropical locations that make up the backdrop for the 1998 calendar. The feature documents the 12 photo shoots and takes an inside look at the lives of the models on the road. Get to know Penthouse Pet of the Year Paige Summers, as well as Leslie Glass, Amy Lynn Baxter, Julia Garvey, and many more as they show viewers what it''s like to work and play on the set of a professional Penthouse calendar shoot.

Качество видео: DVDRip
Формат видео: AVI
Видео кодек: DivX
Аудио кодек: ADPCM
Видео: DivX 4, 512x384 (4/3), 25 fps, 2421 kbps, 0.493 Qf
Аудио: ADPCM, 2 ch, 48 kHz, 384 kbps
Video: DivX 4 (OpenDivX), 2423 kbps, 25.000 fps
Audio: 0x0011 (DVI ADPCM), 48000Hz, 387 kbps , 2 channel(s)
Behind The Scenes / За Кулисами

Год производства: 1995 г.
Страна: USA
Жанр: Erotic
Продолжительность: 49:16
Язык: Английский

Режиссер: Rick Bitzelberger, Ron Kay
Студия: Penthouse

В ролях: Gina LaMarca, Seana Ryan, Julie K. Smith, Dominique St. Croix, Julie Strain

Описание: It''s the job every red-blooded American male wants...to work on a Penthouse video! Well, perhaps we can provide the next best thing to actually being there...Behind The Scenes with Penthouse Video. On this revealing video we give a whole new meaning to "up close and personal!" Follow the fabulous Penthouse Pets as they are put through their paces and find out once and for all what really makes them hot!

Качество видео: DVDRip
Формат видео: MPEG
Видео кодек: MPEG1
Аудио кодек: MP3
Видео: MPEG1, 352x240 (4/3), 29,97 fps, 1120 kbps
Аудио: MP3, 2 ch, 44,1 kHz, 224 kbps
Video: MPEG-1, 1120 kbps, 29.970 fps
Audio: MPEG-1 Layer 2, 44100Hz, 224 kbps CBR, 2 channel(s)
Caligula / Caligola / Калигула [rus]

Год производства: 1979 г.
Страна: Италия, США
Жанр: эротика, драма, история
Продолжительность: 02:35:29
Перевод : профессиональный (двухголосый закадровый) (П.Гланц и И.Королёва)
Режиссер: Тинто Брасс / Tinto Brass, Боб Гуччионе / Bob Guccione, Джанкарло Луи / Giancarlo Lui
Студия: Penthouse Films International, Felix Cinematografica
В ролях: Malcolm McDowell ... Caligula
Teresa Ann Savoy ... Drusilla
Guido Mannari ... Macro
John Gielgud ... Nerva
Peter O''Toole ... Tiberius
Giancarlo Badessi ... Claudius
Bruno Brive ... Gemellus
Adriana Asti ... Ennia
Leopoldo Trieste ... Charicles
Paolo Bonacelli ... Chaerea
John Steiner ... Longinus
Mirella D''Angelo ... Livia (as Mirella Dangelo)
Helen Mirren ... Caesonia
Rick Parets ... Mnester (as Richard Parets)
Paula Mitchell ... Subura Singer
Описание: Рим, 1 век нашей эры. Правителем могущественной империи становится Гай Юлий Цезарь Август Германик, известный под прозвищем Калигула. Его имя станет нарицательным не из-за реформ и свершений, а благодаря расправам, порочным развлечениям и безнравственным связям. Недолгое правление Калигулы станет одной из самых кровавых страниц в истории Римской империи.
Доп. информация: Рип с BDRemux 1080p [REMASTERED]
Качество видео: BDRip
Формат видео: AVI
Видео: 720x384 (1.88:1), 24.000 fps, XviD build 50 ~1809 kbps avg, 0.27 bit/pixel
Аудио: 48 kHz, AC3 Dolby Digital, 3/2 (L,C,R,l,r) + LFE ch, ~192 kbps
try failed try failed try failed try failed try failed try failed try failed try failed try failed try failed try failed try failed try failed try failed try failed try failed try failed try failed try failed try failed try failed try failed try failed try failed try failed try failed try failed
Video: XviD ISO MPEG-4, 1811 kbps, 24.000 fps
Audio: 0x2000 (Dolby AC3) AC3, 48000Hz, 192 kbps CBR, 6 channel(s)
Casting Call #2 / Кинопробы 2 [rus]

Год выпуска: 2000
Страна: США
Жанр: erotic, late night
Продолжительность: 57 мин
Перевод: Отсутствует
Русские субтитры: нет

Режиссер: Nicholas Guccione
Студия: Penthouse Classics

В ролях: Savanna Sampson, Gina La Marca, Natalie, Tigger, Alissa, Sterling, Monet, Jordan, Nomi Dean, Millie, Sophia, Sara Ashley, Sophie

Описание: Описание на английском:
Once again the folks at Penthouse have rounded up some fresh new talent and rolled cameras to see if these sexy amateurs have what it takes to be a Penthouse Pet!
From all over the country, gorgeous babes flocked to New York City for a chance to grace the pages of America''s hottest magazine and be a part of the legend.
See what happens when these sensual sirens unleash their inner nymph and give it all they''ve got. You''ll never look at "the girl next door" the same way again.

вольная трактовка текста:
[i]
В очередной раз люди из журнала "Пентхаус" нашли новые, свежие таланты на эротическом поприще. Они установили камеры напротив моделей, чтобы увидеть, смогут ли стать эти юные старлетки будущими супермоделями журналов для мужчин, а может и стать девушкой года по версии Пентхауса! Со всех окраин, ломанулись тетки в Нью Йорк ради шанса украсить страницы самого горячего журнала Америки и стать частью легенды.

Доп. информация: ночной тврип канала tv1000.

Качество: TVRip
Формат: AVI
Видео кодек: XviD
Аудио кодек: MPEG Audio (mp3)
Видео: XVID 352x280 25.00fps 947 kbps
Аудио: MPEG Audio Layer 3 44100Hz stereo 53Kbps
Video: XviD 1.0.3, 950 kbps, 25.000 fps
Audio: 0x0055 MPEG-1 Layer 3, 44100Hz, 54 kbps VBR, 2 channel(s)
Centerfold Auditions / Просмотр на развороте журнала

Год производства: 2000 г.
Страна: USA
Жанр: Erotic
Продолжительность: 54:23
Язык: Английский

Студия: Penthouse / Image Entertainment

В ролях: Penthouse Video Girls.

Описание: When Penthouse puts out a call for beautiful women to appear in the pages of its magazine, the response is overwhelming. See what happens when the potential Pets are asked to disclose their deepest secrets and most revealing fantasies. This is an insider''s look at what happens before and after the auditions and how the people behind the camera decide who has what it takes to be a Penthouse centerfold. The video includes official screen tests, as well as several off-the-cuff interviews with the centerfold candidates.

Качество видео: DVDRip
Формат видео: RealMedia
Видео кодек: RV40
Видео: RV40 (Based on AVC (H.264), Real Player 9), 352x240 (3:2), 29,97 fps, 764 kbps, 0.302 Qf
Аудио: 2 ch, 22,05 kHz, 32 kbps
Видео: RV40 (Based on AVC (H.264), Real Player 9), 352x240 (3:2), 29,97 fps, 764 kbps, 0.302 Qf
Аудио: 2 ch, 22,05 kHz, 32 kbps
Centerfolds Volume 1 / Фотомодели Том 1



Год производства: 1993 г.
Страна: USA
Жанр: Erotic
Продолжительность: 58:18
Язык: Английский

Студия: Penthouse

В ролях: Amy Lynn, Julie Strain.

Описание: Фильм с моделями журнала Пентхаус Amy Lynn и Julie Strain.

Качество видео: DVDRip
Формат видео: MPEG
Видео кодек: MPEG1
Аудио кодек: MP2
Видео: MPEG1, 352x288 (4:3), 25 fps, 1152 kbps, 0.454 Qf
Аудио: MP2, 2 ch, 44,1 kHz, 224 kbps
Video: MPEG-1, 1152 kbps, 25.000 fps
Audio: MPEG-1 Layer 2, 44100Hz, 224 kbps CBR, 2 channel(s)
Centerfolds Volume 2 / Фотомодели Том 2

Год производства: 1991 г.
Страна: USA
Жанр: Erotic
Продолжительность: 50:04
Язык: Английский

Режиссёр: Paul Nevitt
Студия: Penthouse

В ролях: Jisel, Lynn Johnson.

Описание: Фильм с моделями журнала Пентхаус Jisel и Lynn Johnson.

Качество видео: DVDRip
Формат видео: MPEG-4 Visual
Видео кодек: DivX
Аудио кодек: MP3
Видео: MPEG-4 Visual (DivX 5), 704x460 (3:2), 29,97 fps, 1498 kbps, 0.154 Qf
Аудио: MP3, 2 ch, 44,1 kHz, 224 kbps
Video: DivX 5.2.1 (WaffleDay), 1501 kbps, 29.970 fps
Audio: 0x0055 MPEG-1 Layer 3, 44100Hz, 224 kbps CBR, 2 channel(s)
Centerfolds Volume 4 / Фотомодели Том 4

Год производства: 1993 г.
Страна: USA
Жанр: Erotica
Продолжительность: 00:55:29
Язык: Английский

Режиссер: Paul Nevitt
Студия: Penthouse Classics

В ролях: Leslie Glass, Mahalia

Описание: Leslie Glass and Mahalia… two Penthouse centerfolds that will transport you to the extreme limit of your fantasies. They are provocative, erotic and sexy, and will definitely get your pulse racing.

Качество видео: VHSRip
Формат видео: AVI
Видео кодек: XviD
Аудио кодек: MP3
Видео: Xvid 720x480 29.97fps 2685 Kbps
Аудио: MPEG Audio Layer 3 44100Hz stereo 128kbps
Video: XviD ISO MPEG-4, 2688 kbps, 29.970 fps
Audio: 0x0055 MPEG-1 Layer 3, 44100Hz, 128 kbps CBR, 2 channel(s)
Confessions / Признание
Год производства: 1997 г.
Страна: США
Жанр: Erotic
Продолжительность: 00:54:10
Язык: Английский

Режиссер: Nicholas Guccione
Студия: Penthouse

В ролях: Vicca, Rocky Roads, Nikita, Lexus Locklear, Amber Herrel

Описание: Девушки ужинают а после начинают фантазировать,им в этом помогает старинный отвар)

Формат видео: AVI
Видео кодек: XviD
Аудио кодек: MP3
Видео: 1686 Kbps 4:3 560x416 29.970 fps
Аудио: 112 Kbps 44.1 KHz 2 channels
Video: XviD ISO MPEG-4, 1688 kbps, 29.970 fps
Audio: 0x0055 MPEG-1 Layer 3, 44100Hz, 112 kbps CBR, 2 channel(s)
Dear Diary / Дорогой дневник
Год производства: 2000 г.
Страна: США
Жанр: Erotic
Продолжительность: 1:01:09
Язык: Английский

Студия: Penthouse

В ролях: Samantha Stewart

Описание: Penthouse Pet Samantha Stewart stars in this erotic tale of a girl and her diary. Penthouse: Dear Diary follows Stewart through several innocent and not-so-innocent entries in her diary, that, needless to say, lead to some rather titillating situations.

Формат видео: AVI
Видео кодек: XviD
Аудио кодек: MP3
Video: XviD ISO MPEG-4, 1482 kbps, 29.970 fps
Audio: 0x0055 MPEG-1 Layer 3, 44100Hz, 112 kbps CBR, 2 channel(s)
Video: XviD ISO MPEG-4, 1482 kbps, 29.970 fps
Audio: 0x0055 MPEG-1 Layer 3, 44100Hz, 112 kbps CBR, 2 channel(s)
Dream Girls / Девушки Мечты

Год производства: 1994 г.
Страна: USA
Жанр: Erotic
Продолжительность: 00:52:13
Язык: Английский

Режиссер: Dan O''Dowd
Студия: Penthouse

В ролях: Theresa Presley, Brandy Ledford, Robin Brown, Janine Lindemulder, Christie Joel, Christie Lee, Shawn Mussel, Lynn Johnson

Описание: Великолепные девушки от Пентхауса снова предстанут перед вами во всей своей красе.

Качество видео: DVDRip
Формат видео: MPEG
Видео кодек: MPEG1
Аудио кодек: MP3
Видео: MPEG1, 352x240 (4/3), 29,97 fps, 1140 kbps, 0.450 bit/pixel
Аудио: MP2, 2ch, 44,1 kHz, 224 kbps
Video: MPEG-1, 1140 kbps, 29.970 fps
Audio: MPEG-1 Layer 2, 44100Hz, 224 kbps CBR, 2 channel(s)
Eden Adams and Friends / Иден Адамс и друзья
Год производства: 2002 г.
Страна: США, Германия
Жанр: Эротика, стриптиз
Продолжительность: 00:49:50
Режиссер: Голландия Келли
Студия: SUNFILM Entertainment
В ролях: Иден Адамс, Бруклин, Мелиссы Якоба, Никки Бенц
Описание: Насладитесь показом, а великолепные девушки окунут вас в мир желаний и фантазий.
Качество видео: BDRip (AVC)
Аудио кодек: AC3
Видео: MPEG-4 AVC, 3475 Кбит/с, 1024x576
Аудио: Английский (АС3, 2 ch, 448 Кбит/с)
Eurogirls - Afternoon Delights / Евроженские Восхищения Дня

Год производства: 2002 г.
Страна: USA
Жанр: Erotic
Продолжительность: 00:55:21
Язык: Английский

Режиссер: Dorien Gay Rosenthall
Студия: Image Entertainment

В ролях: Svetlana Angel и другие девушки.

Описание: Steal away for some hot adventures with your favorite tour guides, the Eurogirls. We travel to one of Europe''s most beautiful town squares where we find all sorts of erotic pleasures--a young gypsy''s fiery dance, a sensual stripping contest, a provocative business deal, sexy surprises revealed by our hidden camera and much more! Take the phone off the hook, draw the curtains, sit back and sneak in some Afternoon Delights!

Качество видео: DVDRip
Формат видео: AVI
Видео кодек: XviD
Аудио кодек: MP3
Видео: XviD, 608x464 (4/3), 23,976 fps, 1631 kbps, 0.241 Qf
Аудио: MP3, 2ch, 48 kHz, 32 kbps
Video: XviD Dev ver. 25-Mar-03, 1648 kbps, 23.976 fps
Audio: 0x0055 MPEG-1 Layer 3, 48000Hz, 128 kbps VBR, 2 channel(s)
EuroGirls - Erotica Through The Ages 2 / Евродевушки - Эротика через возрасты 2

Год производства: 2002 г.
Страна: USA
Жанр: Erotic
Продолжительность: 00:56:43
Язык: Английский

Режиссер: Dorien Gay Rosenthall
Студия: Image Entertainment

В ролях: Svetlana Angel и другие девушки.

Описание: We travel deeper and deeper into the enticing world of erotica in this part of our journey. It all began with the temptations that tantalized Adam and Eve and continued through the ages. Let the gorgeous Eurogirls be your teachers in life''s most fascinating subject as they star in our naughtiest stories, revealing their irresistible bodies and exploring their deepest passions just for you.

Качество видео: DVDRip
Формат видео: AVI
Видео кодек: XviD
Аудио кодек: MP3
Video: XviD Dev ver. 25-Mar-03, 1606 kbps, 23.976 fps
Audio: 0x0055 MPEG-1 Layer 3, 48000Hz, 126 kbps VBR, 2 channel(s)
Video: XviD Dev ver. 25-Mar-03, 1606 kbps, 23.976 fps
Audio: 0x0055 MPEG-1 Layer 3, 48000Hz, 126 kbps VBR, 2 channel(s)
EuroGirls - Fairy Tail Fantasies / Евродевушки - Волшебные фантазии

Год производства: 2002 г.
Страна: USA
Жанр: Erotic
Продолжительность: 00:55:43
Язык: Английский

Режиссер: Dorien Gay Rosenthall
Студия: Image Entertainment

В ролях: Svetlana Angel и другие девушки.

Описание: Fairy Tale Fantasies a video that is part of the Penthouse: Euro Girls series, combines a trio of erotic tales with candid camera footage that captures people reacting to naked women.

Качество видео: DVDRip
Формат видео: AVI
Видео кодек: XviD
Аудио кодек: MP3
Video: XviD Dev ver. 25-Mar-03, 1637 kbps, 23.976 fps
Audio: 0x0055 MPEG-1 Layer 3, 48000Hz, 127 kbps VBR, 2 channel(s)
Video: XviD Dev ver. 25-Mar-03, 1637 kbps, 23.976 fps
Audio: 0x0055 MPEG-1 Layer 3, 48000Hz, 127 kbps VBR, 2 channel(s)
EuroGirls - Hedonism European Style / Евродевушки - Европейский стиль гедонизма

Год производства: 2002 г.
Страна: USA
Жанр: Erotic
Продолжительность: 00:56:16
Язык: Английский

Режиссер: Dorien Gay Rosenthall
Студия: Image Entertainment

В ролях: Svetlana Angel и другие девушки.

Описание: Hedonism European Style a video that is part of the Penthouse: Euro Girls series, contains erotic stories that involve golf, hockey, and other sports as well.

Качество видео: DVDRip
Формат видео: AVI
Видео кодек: XviD
Аудио кодек: MP3
Video: XviD Dev ver. 25-Mar-03, 1632 kbps, 29.970 fps
Audio: 0x0055 MPEG-1 Layer 3, 48000Hz, 126 kbps VBR, 2 channel(s)
Video: XviD Dev ver. 25-Mar-03, 1632 kbps, 29.970 fps
Audio: 0x0055 MPEG-1 Layer 3, 48000Hz, 126 kbps VBR, 2 channel(s)
EuroGirls - Leather & Lace / Евродевушки - Кожа & Кружева

Год производства: 2002 г.
Страна: USA
Жанр: Erotic
Продолжительность: 00:55:49
Язык: Английский

Режиссер: Dorien Gay Rosenthall
Студия: Image Entertainment

В ролях: Svetlana Angel и другие девушки.

Описание: There''s nothing like the erotic appeal of leather and lace--that combination of danger and romance, naughty girl and haughty princess. Hop on your Harley and speed into the world of fantasy with the Eurogirls at your side.

Качество видео: DVDRip
Формат видео: AVI
Видео кодек: XviD
Аудио кодек: MP3
Video: XviD Dev ver. 25-Mar-03, 1635 kbps, 23.976 fps
Audio: 0x0055 MPEG-1 Layer 3, 48000Hz, 128 kbps VBR, 2 channel(s)
Video: XviD Dev ver. 25-Mar-03, 1635 kbps, 23.976 fps
Audio: 0x0055 MPEG-1 Layer 3, 48000Hz, 128 kbps VBR, 2 channel(s)
EuroGirls - Sexual History Part 2 / Евродевушки - Сексуальная история часть 2

Год производства: 2002 г.
Страна: USA
Жанр: Softcore
Продолжительность: 58 mins
Язык: Английский

Режиссер: Dorien Gay Rosenthal
Студия: Penthouse Classics

В ролях: Svetlana Angel, Eva Nova

Описание: Теперь Вы готовы к новейшему курсу по общему любимому предмету! Все это началось с искушений, которые мучили Адама и Еву и продолжились через возрасты. Позвольте великолепным Евродевушкам быть вашими гидами, поскольку они берут Вас на эротической производственной практике самых глубоких страстей истории и самых чувственных соблазнений.

Качество видео: DVDRip
Формат видео: AVI
Видео кодек: DivX
Аудио кодек: MP3
Видео: Video: Xvid 608x464 23.98fps [Video]
Аудио: Audio: MPEG Audio Layer 3 48000Hz stereo 126kbps [Audio]
Video: XviD Dev ver. 25-Mar-03, 1560 kbps, 23.976 fps
Audio: 0x0055 MPEG-1 Layer 3, 48000Hz, 126 kbps VBR, 2 channel(s)
Fast Cars Fantasy Women / Быстрые машины сказочные девушки

Год производства: 1991 г.
Страна: USA
Жанр: Erotic
Продолжительность: 00:53:07
Язык: Английский

Режиссер: Matthew Ferro
Студия: Penthouse

В ролях: Deidre Holland, Brandy Ledford (as Jisel), Murrill Maglio, Tanya Murphy, Julie Strain, Teri Weigel

Описание: Gentlemen, start your engines, then run at full throttle through an exciting drive that''s pulsating with sexy cars. And even sexier women. Dream models for every taste. From bright chrome to sleek curves, hard bumpers to sultry rear ends--wheels and women together in ways that only Penthouse could imagine! Superbly built for speed and handling, that''s the way to describe every sensational chassis that''s been assembled here for you in unique Penthouse style.

Качество видео: VHSRip
Формат видео: AVI
Видео кодек: XviD
Аудио кодек: MP3
Видео: XVID 640x480 29.97fps 1694Kbps
Аудио: MPEG Audio Layer 3 48000Hz stereo 96Kbps
Video: XviD ISO MPEG-4, 1698 kbps, 29.970 fps
Audio: 0x0055 MPEG-1 Layer 3, 48000Hz, 96 kbps CBR, 2 channel(s)
Fire and Ice / Огонь и лёд [rus]

Год производства: 1997 г.
Страна: USA
Жанр: Erotic
Продолжительность: 00.52.32
Язык: Русский

Режиссер: Bob Guccione | Paul Nevitt
Студия: Penthouse Video Inc.

В ролях: Lexus Locklear (as Brandi), Andrea Mountjoy, Nikki Nova, Shauna O''Brien, Bonita Saint, Lydia Schone, Taylor St. Clair, Ashley Williams

Описание: "Лёд и Пламень"- это соблазнительное зрелище, которое до самых крайних пределов обострит Ваши чувства и раскроет Вам волнующие тайны необузданного эротизма. Вы никогда не видели ничего горячее и сексуальнее! Самые знойные модели знаменитого журнала "PENTHOUSE", собранные в этой непревзойдённое коллекции пикантных сюжетов, воплотят в жизнь самые экзотические и изощрённые фантазии- от мягких и чувственных до острых и страстных. (текст: 1997, ЗАО "Фирма ВДВ", Екатеринбург)

Доп. информация: Моя раздача отличается от уже существующих максимально возможным качеством звука. Это собственная оцифровка с лицензионной VHS кассеты компании Екатеринбург-АРТ ("Фирма ВДВ") в формате PCM 1411 kbps. Видео "Пентхауса" эпохи 90-ых уже стали своеобразной классикой эротики, учитывая нынешнее время. По правде говоря, сегодня его не возможно смотреть без улыбки и слёз. Как мы могли тогда засматриваться на этих "красоток" с силиконовыми шарами вместо груди и далеко как не красивыми лицами? Сейчас индустрия эротического видео, в лице, например, Met-Art, предлагает самых утончённых и юных моделей со своей естественной природной красотой и всё это великолепие- в формате HD, у кого-то даже уже и 4К. А мы тут кассетки пыльные с полки оцифровываем... Наверное, это просто ностальгия, вспомнить свои годы и переживания, поэтому для меня показалось важным сопроводить данное видео качественным звуком. Возможно у кого-то, как и у меня, с этим музыкальным рядом связано много приятных воспоминаний!

Качество видео: DVDRip
Формат видео: AVI
Видео: MPEG4, DivX 5, 720x480 (3:2), 29.970 fps, 2 482 Kbps (0.240 bit/pixel)
Аудио: PCM, Bit rate:1 411.2 Kbps, Channel(s): 2 channels, Sampling rate: 44.1 KHz, Bit depth: 16 bits
Video: DivX 5.x/6.x, 2485 kbps, 29.970 fps
Audio: PCM Audio, 44100Hz, 1411 kbps , 2 channel(s)
Forbidden fantasies / Запрещенные фантазии

Год выпуска: 1994
Страна: США
Жанр: Эротика
Продолжительность: 00:47:19
Перевод: Отсутствует
Русские субтитры: нет

Режиссер: Matt Ferro, Ron Kay, Rick Bitzelberger
Студия: PENTHOUSE
В ролях: Kelly Winter, James Watson, Timi Lynn, Jordon Jarelle, Johnaton Alexander, Teana Ray, Travis Steele, Monica Turner, Shane Spencer, Beau

Описание: Шесть красивых эротических историй...
Разные люди - различные запреты и связанные с ними фантазии..
Модели PENTHOUSE и красивые декорации в каждой истории.

Качество: DVDRip
Формат: AVI
Видео кодек: XviD
Аудио кодек: MPEG Audio (mp3)
Видео: 720x552 (1.30:1), 23.976 fps, XviD build 47 ~1929 kbps avg, 0.20 bit/pixel
Аудио: 48 kHz, MPEG Layer 3, 2 ch, ~128.00 kbps avg
Video: XviD ISO MPEG-4, 1932 kbps, 23.976 fps
Audio: 0x0055 MPEG-1 Layer 3, 48000Hz, 128 kbps CBR, 2 channel(s)
Girlfriends / Подружки

Год производства: 2004 г.
Страна: USA
Жанр: Erotic
Продолжительность: 1:00:10
Язык: Английский

Студия: Penthouse video

В ролях: Alex Arden, Victoria Zdrok, Megan Mason, Aimee Sweet, Alexus Winston

Описание: Gorgeous girlfriends pair up to fulfill their secret desires of lesbian lust! These luscious companions don''t mind kissing and telling. Starring Penthouse Pets of the Year Megan Mason and Victoria Zdrok, Penthouse Pets Alex Arden, Aimee Sweet, Alexus Winston and Lynn Thomsas, plus Nikita Denise, Kiki D''Aire, Mia Smiles and Goldie!

Качество видео: DVDRip
Формат видео: AVI
Видео кодек: DivX
Аудио кодек: MP3
Видео: DivX 5 740x480 29.97fps 2974 Kbps
Аудио: MPEG Audio Layer 3 48000Hz stereo 128kbps
Video: DivX 5.x/6.x, 2977 kbps, 29.970 fps
Audio: 0x0055 MPEG-1 Layer 3, 48000Hz, 128 kbps CBR, 2 channel(s)
Girls Of Europe / Девочки Европы [rus]

Год производства: 2000 г.
Страна: USA
Жанр: Erotic
Продолжительность: 48:51
Язык: Английский

Студия: Image Entertainment

Описание: Take a trip with renowned Penthouse photographer Earl Miller as he travels to Europe to find beautiful women to photograph for the long-standing adult magazine. The video documents several photo shoots that take place in exquisite European locations. Find out what the European Penthouse Pets think of their experience in front of the camera and discover what they enjoy doing when they''re not on the job. The women talk about their impressions of Miller, their thoughts on modeling, and of course their most outrageous fantasies.

Качество видео: DVDRip
Формат видео: AVI
Видео кодек: MP4
Аудио кодек: AAC
Video: MPEG-4 Video, 1234 kbps, 25.000 fps
Audio: mp4a: MPEG-4 AAC LC, 44100Hz, 97 kbps , 2 channel(s)
Video: MPEG-4 Video, 1234 kbps, 25.000 fps
Audio: mp4a: MPEG-4 AAC LC, 44100Hz, 97 kbps , 2 channel(s)
Girls Of Penthouse 1 / Девушки Пентхауса 1

Год производства: 1984 г.
Продолжительность: 58:35
Режиссер: Edward Holzman
Студия: Penthouse

В ролях: Maria Vargus, Danielle Martin, Vicki Vickers, Kelli Howell, J.C. Palmer, Rudolph Laubscher, Troy Cory, Skip Stokey, Jody Swafford, Brinke Stevens, Gene Carrier, Alexandra Day, Jolande Van Amersfoorth, David Dowse, Victoria Johnson

Описание: From the makers of Penthouse Magazine comes the first volume in the Girls of Penthouse series. In addition to several erotic vignettes featuring an assortment of young women plucked from the pages of the popular men''s monthly, Penthouse: The Girls of Penthouse, Vol. 1 takes viewers inside an actual photo shoot conducted by magazine founder Bob Guccione. This program is intended for an adult audience only.

Качество видео: DVDRip
Формат видео: MPEG
Видео кодек: MPEG2
Аудио кодек: MP2
Видео: MPEG2, 480x576 (4/3), 25 fps, 2368 kbps, 0.343 Qf
Аудио: MP2, 2 ch, 44,1 kHz, 192 kbps
Video: MPEG-2, 2376 kbps, 25.000 fps
Audio: MPEG-1 Layer 2, 44100Hz, 192 kbps CBR, 2 channel(s)
Video: MPEG-2, 2376 kbps, 25.000 fps
Audio: MPEG-1 Layer 2, 44100Hz, 192 kbps CBR, 2 channel(s)
Girls Of Penthouse 2 / Девушки Пентхауса 2

Год производства: 1993 г.
Продолжительность: 48:37
Режиссер: Andrew Blake
Студия: Penthouse

В ролях: Janine Lindemulder, Jasmine, Theresa Presley и другие.

Описание: Очаровательные девушки показывают свои прелести.

Качество видео: DVDRip
Формат видео: MPEG
Видео кодек: MPEG2
Аудио кодек: MP2
Видео: MPEG2, 480x576 (4/3), 25 fps, 2368 kbps, 0.343 Qf
Аудио: MP2, 2 ch, 44,1 kHz, 192 kbps
Video: DivX 3 Low-Motion, 1712 kbps, 29.970 fps
Audio: 0x0055 MPEG-1 Layer 3, 44100Hz, 128 kbps CBR, 2 channel(s)
Girls Of Penthouse 3 / Девушки Пентхауса 3
Год производства: 1995 г.
Страна: USA | США
Жанр: Erotic
Продолжительность: 00:50:50
Язык: Английский | English

Режиссер: Paul Nevitt
Студия: Penthouse Video

В ролях: Jami, Tracy, Seana, Shauna O''Brien (as Stevie) and Sharon

Описание: More of the beautiful Pets. More of the erotic scenes you''ve come to expect from Penthouse. More of what you want! In this brand-new collection of video vignettes, some of your favorite Penthouse Pets reveal all their intimate treasures. You don''t want to miss what these Girls of Penthouse have to offer!

Качество видео: DVDRip
Формат видео: MP4
Видео: AVC, 720x480 (4:3), 29.970 fps, 4 036 Kbps (0.390 bit/pixel)
Аудио: AAC LC, 48.0 KHz, 2 ch, 223 Kbps, VBR (English)

Girls Of Penthouse 3 (677 Mb)
General
Format : MPEG-4
Format profile : Base Media / Version 2
Codec ID : mp42
File size : 1.51 GiB
Duration : 50mn 50s
Overall bit rate : 4 259 Kbps
Encoded date : UTC 2016-02-15 23:43:30
Tagged date : UTC 2016-02-15 23:48:55
Video #1
ID : 1
Format : AVC
Format/Info : Advanced Video Codec
Format profile : Main@L3.0
Format settings, CABAC : Yes
Format settings, ReFrames : 2 frames
Codec ID : avc1
Codec ID/Info : Advanced Video Coding
Duration : 50mn 47s
Bit rate mode : Variable
Bit rate : 4 036 Kbps
Maximum bit rate : 11.5 Mbps
Width : 720 pixels
Height : 480 pixels
Display aspect ratio : 4/3
Frame rate mode : Variable
Frame rate : 29.970 fps
Minimum frame rate : 14.985 fps
Maximum frame rate : 29.970 fps
Standard : NTSC
Resolution : 24 bits
Colorimetry : 4:2:0
Scan type : Progressive
Bits/(Pixel*Frame) : 0.390
Stream size : 1.43 GiB (95%)
Encoded date : UTC 2016-02-15 23:43:30
Tagged date : UTC 2016-02-15 23:48:55
Audio #2
ID : 2
Format : AAC
Format/Info : Advanced Audio Codec
Format version : Version 4
Format profile : LC
Format settings, SBR : No
Codec ID : 40
Duration : 50mn 50s
Bit rate mode : Variable
Bit rate : 223 Kbps
Maximum bit rate : 282 Kbps
Channel(s) : 2 channels
Channel positions : L R
Sampling rate : 48.0 KHz
Resolution : 16 bits
Stream size : 81.1 MiB (5%)
Title : eng
Language : English
Encoded date : UTC 2016-02-15 23:43:30
Tagged date : UTC 2016-02-15 23:48:55
Audio #3
ID : 3
Format : AAC
Format/Info : Advanced Audio Codec
Format version : Version 4
Format profile : LC
Format settings, SBR : No
Codec ID : 40
Bit rate mode : Constant
Channel(s) : 6 channels
Channel positions : Front: L C R, Rear: L R, LFE
Sampling rate : 48.0 KHz
Resolution : 16 bits
Title : eng
Language : English
Encoded date : UTC 2016-02-15 23:43:30
Tagged date : UTC 2016-02-15 23:43:30
Audio #4
ID : 4
Format : AAC
Format/Info : Advanced Audio Codec
Format version : Version 4
Format profile : LC
Format settings, SBR : No
Codec ID : 40
Bit rate mode : Constant
Channel(s) : 6 channels
Channel positions : Front: L C R, Rear: L R, LFE
Sampling rate : 48.0 KHz
Resolution : 16 bits
Title : eng
Language : English
Encoded date : UTC 2016-02-15 23:43:30
Tagged date : UTC 2016-02-15 23:43:30
Audio #5
ID : 5
Format : AAC
Format/Info : Advanced Audio Codec
Format version : Version 4
Format profile : LC
Format settings, SBR : No
Codec ID : 40
Bit rate mode : Constant
Channel(s) : 6 channels
Channel positions : Front: L C R, Rear: L R, LFE
Sampling rate : 48.0 KHz
Resolution : 16 bits
Title : eng
Language : English
Encoded date : UTC 2016-02-15 23:43:30
Tagged date : UTC 2016-02-15 23:43:30
Audio #6
ID : 6
Format : AAC
Format/Info : Advanced Audio Codec
Format version : Version 4
Format profile : LC
Format settings, SBR : No
Codec ID : 40
Bit rate mode : Constant
Channel(s) : 6 channels
Channel positions : Front: L C R, Rear: L R, LFE
Sampling rate : 48.0 KHz
Resolution : 16 bits
Title : eng
Language : English
Encoded date : UTC 2016-02-15 23:43:30
Tagged date : UTC 2016-02-15 23:43:30
Audio #7
ID : 7
Format : AAC
Format/Info : Advanced Audio Codec
Format version : Version 4
Format profile : LC
Format settings, SBR : No
Codec ID : 40
Bit rate mode : Constant
Channel(s) : 6 channels
Channel positions : Front: L C R, Rear: L R, LFE
Sampling rate : 48.0 KHz
Resolution : 16 bits
Title : eng
Language : English
Encoded date : UTC 2016-02-15 23:43:30
Tagged date : UTC 2016-02-15 23:43:30
Audio #8
ID : 8
Format : AAC
Format/Info : Advanced Audio Codec
Format version : Version 4
Format profile : LC
Format settings, SBR : No
Codec ID : 40
Bit rate mode : Constant
Channel(s) : 6 channels
Channel positions : Front: L C R, Rear: L R, LFE
Sampling rate : 48.0 KHz
Resolution : 16 bits
Title : eng
Language : English
Encoded date : UTC 2016-02-15 23:43:30
Tagged date : UTC 2016-02-15 23:43:30
Audio #9
ID : 9
Format : AAC
Format/Info : Advanced Audio Codec
Format version : Version 4
Format profile : LC
Format settings, SBR : No
Codec ID : 40
Bit rate mode : Constant
Channel(s) : 6 channels
Channel positions : Front: L C R, Rear: L R, LFE
Sampling rate : 48.0 KHz
Resolution : 16 bits
Title : eng
Language : English
Encoded date : UTC 2016-02-15 23:43:30
Tagged date : UTC 2016-02-15 23:43:30
Video: H.264/MPEG-4 AVC, 4263 kbps, 14.985 fps
Audio: mp4a: MPEG-4 AAC LC, 48000Hz, 0 kbps , 6 channel(s)
Girls Of Penthouse 4 / Девушки Пентхауса 4

Год выпуска: 2001
Жанр: Эротика
Продолжительность: 58 мин

Режиссер: Nicholas Guccione

В ролях: Devinn Lane, Tera Patrick, Devon , Aria Giovanni

Описание: Once again the pages of Penthouse magazine come alive before your eyes as beautiful Penthouse Pets Devon, Tera Patrick, Devinn Lane, and Aria Giovanni please themselves and each other for your viewing delight. Tehse sensual Pets lose all their inhibitions in front of the cameras and take you into their fantasy world.

Качество: DVDRip
Формат: AVI
Видео кодек: XviD
Аудио кодек: AC3
Видео: 704 x 544 (22:17)
Аудио: 48000 Гц, Стерео, 224 Кбит/сек
Video: XviD Dev ver. 25-Mar-03, 3612 kbps, 29.970 fps
Audio: 0x2000 (Dolby AC3) AC3, 48000Hz, 224 kbps CBR, 2 channel(s)
Video: XviD Dev ver. 25-Mar-03, 2793 kbps, 29.970 fps
Audio: 0x2000 (Dolby AC3) AC3, 48000Hz, 224 kbps CBR, 2 channel(s)
Hot & Sexy / Горячие и Сексуальные
Год производства: 2012 г.
Страна: США, Германия
Жанр: Strip, Erotic
Продолжительность: 00:55:51
Язык: Музыка

Режиссер: Kelly Holland
Студия: SUNFILM Entertainment

В ролях: Mit Karlie Montana, Sophia Bella, Tiffany Brookes, Veronica Ricci, Sammie Rhodes, Heather Vandeven

Описание: PENTHOUSE präsentiert HOT & SEXY PENTHOUSE GIRLS!
Diese verführerischen Penthouse Girls sind nicht nur hot und sexy, sondern auch allein Dein. Sie entführen ihren Betrachter in die reizvolle tabulose Welt der heißen Erotik. Hier wird große erotische Vielfalt geboten. Genießen Sie eine unvergessliche Zeit mit diesen High-Class Traumgirls. Ein verführerisches Vergnügen der Extraklasse für die Herren. Eine Vorlage zum Nachmachen für die Damen
Erleben Sie die sinnlichen und erotischen Penthouse Pets™
Jetzt in der aufregenden Luxus-Edition in der Silber-O-Card mit Logoprägung.

Качество видео: BDRip
Тип HD видео: 720p
Формат видео: MKV
Видео кодек: H.264/AVC
Аудио кодек: AAC
Video: MPEG4 Video (H264) 1280x720 23.976fps [Video]
Audio: Dolby AC3 48000Hz stereo [Audio]
Island Girls / Островные Девушки

Год производства: 1997 г.
Страна: USA
Жанр: Erotic
Продолжительность: 54:29
Язык: Английский

Режиссер: James Hoffer, Craig Korka
Студия: Penthouse

В ролях: Lene Hefner, Natalie Bach, Bobbi French, Sarah Hutchinson, Lauren Reynolds, Necole Velasques, Abbe Vogel

Описание: Take a wild trip to the tropics with those ultimate tour guides, the Penthouse Island Girls. This sensuous program is a lush and exotic journey through the Caribbean with a few of the most gorgeous models around. The steamy tropics provide the perfect backdrop for some very hot women, including international beauties Abbe Vogel, Bobbi French, Sarah Hutchinson and Natalie Bach. You''ll never need another vacation once you''ve been swept away with the Penthouse Island Girls.

Доп. информация: Концовка фильма к сожалению немного обрезана.

Качество видео: DVDRip
Формат видео: AVI
Видео кодек: XviD
Аудио кодек: AC3
Видео: XviD, 640x480 (4/3), 23, 976 kbps, 1533 kbps, 0.208 Qf
Аудио: AC3, 2 ch, 48 kHz, 256 kbps
Video: XviD Dev ver. 25-Mar-03, 1535 kbps, 23.976 fps
Audio: 0x2000 (Dolby AC3) AC3, 48000Hz, 256 kbps CBR, 2 channel(s)
Kama Sutra II - The Art of Making Love / Камасутра II: Искусство Создания Любви

Год производства: 1995 г.
Страна: USA
Жанр: Documentary | Romance
Продолжительность: 00.46.39
Язык: Английский

Режиссер: Chris Hutson
Студия: Penthouse

Описание: Various photogenic couples demostrate the different techniques of making love (from Kama Sutra), while a female voice narrates sporadically. The film is divided into chapters, each dealing with a different aspect of sex or foreplay.

Качество видео: DVDRip
Формат видео: AVI
Видео: xvid at 633 Кбит/сек 352 x 240 (1.339) at 29.970 fps
Аудио: MPEG Audio at 256 Кбит/сек 2 канала, 44,1 КГц
Video: XviD ISO MPEG-4, 637 kbps, 29.970 fps
Audio: 0x0055 MPEG-1 Layer 3, 44100Hz, 256 kbps CBR, 2 channel(s)
Labor of Lust / Жажда Труда

Год производства: 2004 г.
Страна: USA
Жанр: Documentary | Romance
Продолжительность: 00.46.39
Язык: Английский

Студия: Image Entertainment

В ролях: Monique Alexander, Vicky Powell, Sandra Shine и другие.

Описание: Six scorching love scenes featuring the most delectable workplace sirens you''ll ever get next to in hot girl/girl and boy/girl action! From the fantasy barbershop to the hot bakery to the spinning room, these girls are all worked up to get you off!

Качество видео: DVDRip
Формат видео: AVI
Video: DivX 5.2.1 (DrDivX106), 1726 kbps, 29.970 fps
Audio: 0x0055 MPEG-2 Layer 3, 24000Hz, 48 kbps CBR, 2 channel(s)
Video: DivX 5.2.1 (DrDivX106), 1726 kbps, 29.970 fps
Audio: 0x0055 MPEG-2 Layer 3, 24000Hz, 48 kbps CBR, 2 channel(s)
Lingerie Party / Вечеринка дамского белья


Год производства: 1999 г.
Страна: USA
Жанр: All Sex
Продолжительность: 00:57:40
Студия: Penthouse

Описание:
Vicca, Trina, Aimee Sweet, Angelica Costello

Качество видео: VHSRip
Формат видео: AVI
Видео: MPEG-4 Visual, 925 Kbps, 720 pixels, 480 pixels, 29.970 fps
Аудио: MPEG Audio, 128 Kbps, 2 channels, 48.0 KHz
Video: DivX 3 Low-Motion, 927 kbps, 29.970 fps
Audio: 0x0055 MPEG-1 Layer 3, 48000Hz, 128 kbps CBR, 2 channel(s)
Lipstick Girls / Девочки Помады

Год производства: 1997 г.
Страна: USA
Жанр: Erotic
Продолжительность: 00:58:38
Язык: Английский

Режиссер: Lucas Riley
Студия: Penthouse

В ролях: Claudine Jennings, Crystal Knight, Dyanna Lauren, Monica Mendez, Tammy Parks, Lydia Schone

Описание: Эта губная помада на устах знойных красоток из знаменитого журнала "Penthouse" обещает чувственный экстаз и зажигательную страсть. Изнывая от желания в салоне красоты и извиваясь в зажигательных ритмах ночного клуба, восхитительные Любимцы Penthouse заставят Вас забыть обо всем, кроме их пленительных тел. Присоединяйтесь к волнующей компании очаровательных девушек с губной помадой, готовых воплотить все Ваши фантазии.

Качество видео: DVDRip
Формат видео: AVI
Видео кодек: XviD
Аудио кодек: MP3
Видео: Video: 640x480 (1.33:1), 25 fps, XviD build 50 ~2180 kbps avg, 0.28 bit/pixel
Аудио: Audio: 48 kHz, MPEG Layer 3, 2 ch, ~192.00 kbps avg
Video: XviD ISO MPEG-4, 2184 kbps, 25.000 fps
Audio: 0x0055 MPEG-1 Layer 3, 48000Hz, 192 kbps CBR, 2 channel(s)
Lost Treasures / Потерянные Сокровища

Год производства: 1997 г.
Страна: USA
Жанр: Erotic
Продолжительность: 45:51
Студия: Penthouse

В ролях: Julie Smith, Brandi Braxton, Jami Dion, Brittany Mays, Sonja McDaniel, Julia Anne

Описание: Nothing beats the satisfaction of finding something you though was long gone--especially when it involves the recovery of supposedly lost footage of frolicsome Penthouse beauties! From deep in the vaults at Penthouse, some of the hottest ladies in some of the most provocative action you''ll ever see!

Качество видео: DVDRip
Формат видео: MPEG
Видео кодек: MPEG1
Аудио кодек: MP2
Видео: MPEG1, 352x240 (4/3), 29,97 fps, 1123 kbps, 0.444 Qf
Аудио: MP2, 2 ch, 44,1 kHz, 224 kbps
Video: MPEG-1, 1151 kbps, 29.970 fps
Audio: MPEG-1 Layer 2, 44100Hz, 224 kbps CBR, 2 channel(s)
Luscious Ladies / Сочные Леди

Год производства: 1997 г.
Страна: USA
Жанр: Erotic
Продолжительность: 51:27
Язык: Английский

Режиссер: Lucas Riley
Студия: Penthouse

В ролях: Nikki Nova, Nikki Tyler, Sabrina Stone, Seana Ryan, Sindee Coxx, Taylor St Claire

Описание: Penthouse continues its tradition of providing its viewers with the women of their fantasies. Experience these exquisite beauties as they reveal everything to you. Exotic, sultry, and supremely luscious, Penthouse ladies can satisfy your deepest dreams.

Качество видео: DVDRip
Формат видео: AVI
Видео кодек: DivX
Аудио кодек: AC3
Видео: DivX 5, 640x480 (4/3), 23,976 fps, 1698 kbps, 0.231 Qf
Аудио: AC3, 2 ch, 48 kHz, 192 kbps
Video: DivX 5.x/6.x, 1902 kbps, 29.970 fps
Audio: 0x0055 MPEG-1 Layer 3, 48000Hz, 320 kbps CBR, 2 channel(s)
Выражаю огромную благодарность пользователям релизы которых я использовал в этом ПАКЕ!:
@ndron, vikont10, Richard - Lion Heart, rikom, DaYaYa, waldemar26, chumaFF, Sanja95,
СЕКСПИСТОЛС, on-lite, sipita, geinz, sgey, rotorov, Wonders, snakeMarat

P.S. Буду благодарен помощи в поиске недостающих фильмов и замены тех что есть на лучшие по качеству.

Внимание! AdBlock блокирует показ скриншотов, все вопросы к разработчикам )))
Трекер:  [ 09-Янв-2018 16:00 ]

  

Скачать .torrent

Размер .torrent файла 497 KB


Размер: 90.69 GB
Хэш (hash) релиза: c4be8ed19888ca100596ee52a31a59e40b97be54

Еще никто не оставлял запись к записи скачать торрент Полная Коллекция Эротических и Документальных фильмов от студии Penthouse . Будь первым!

!Обратная связь