Скачать через торрент Налетчики Marauders Фильм бесплатно в хорошем качестве torrent

Скачивайте на UnionPeer.org фильмы через торрент без регистрации. Новинки кино в хорошем качестве через торрент. На UnionPeer.org можно скачать через торрент фильмы 2014 и 2015 годов. Самые новые фильмы.

Скачать торрент Налетчики Marauders бесплатно через .torrent фильм мультфильм сериал

Статистика раздачи
Размер:  2.3 GB   |    Зарегистрирован:  6 лет 1 месяц   |    .torrent скачан:  187 раз   |   
Раздают:  1  
 

Скачать Налетчики / Marauders (Стивен С. Миллер / Steven C. Miller) [2016, Канада, боевик, триллер, криминал, BDRip-AVC] Dub (iTunes) + Original Eng + Sub (Rus, Eng) через torrent

 
 
Автор Сообщение

Galfimbul

avatar Galfimbul


Налетчики / Marauders
Страна: Канада
Жанр: боевик, триллер, криминал
Год выпуска: 2016
Продолжительность: 01:47:07

Перевод: Профессиональный (дублированный) iTunes
Субтитры: русские, английские
Оригинальная аудиодорожка: английский

Режиссер: Стивен С. Миллер / Steven C. Miller

В ролях: Брюс Уиллис, Кристофер Мелони, Дэйв Батиста, Адриан Гренье, Лидия Халл, Тайлер Джон Олсон, Кристофер Роб Бауэн, Ричи Чэнс, Дэнни А. Абекейзер

Описание: История об агенте ФБР, который нападает на след преступников, ограбивших банк и отдавших все украденные деньги на благотворительные нужды. Чем дальше продвигается расследование, тем больше главный герой убеждается в том, что у владельца банка имеются собственные секреты.

Сэмпл: http://sendfile.su/1388960

Качество видео: BDRip-AVC (Marauders.2016.D.BDREMUX.1080p.ExKinoRay)
Формат видео: MKV

Видео: x264, 1152x482 (2.40:1) 23.976 fps, ~2243 kbps, 0,168 bit/pixel
Аудио 1: 48 kHz, AC3 Dolby Digital, 3/2 (L,C,R,l,r) + LFE ch, ~384 kbps [русский, iTunes Russia]
Аудио 2: 48 kHz, AC3 Dolby Digital, 3/2 (L,C,R,l,r) + LFE ch, ~448 kbps [английский]
Формат субтитров: softsub (SRT)
General
Unique ID : 222430632074605935410768675760860444277 (0xA75694DC46ADA99F632EC01CE7123675)
Format : Matroska
Format version : Version 4 / Version 2
File size : 2.30 GiB
Duration : 1h 47mn
Overall bit rate : 3 077 Kbps
Encoded date : UTC 2018-01-04 07:31:38
Writing application : mkvmerge v19.0.0 ('Brave Captain') 64-bit
Writing library : libebml v1.3.5 + libmatroska v1.4.8
Video #1
ID : 1
Format : AVC
Format/Info : Advanced Video Codec
Format profile : [email protected]
Format settings, CABAC : Yes
Format settings, ReFrames : 11 frames
Codec ID : V_MPEG4/ISO/AVC
Duration : 1h 47mn
Bit rate : 2 243 Kbps
Width : 1 152 pixels
Height : 482 pixels
Display aspect ratio : 2.40:1
Frame rate mode : Constant
Frame rate : 23.976 (24000/1001) fps
Color space : YUV
Chroma subsampling : 4:2:0
Bit depth : 8 bits
Scan type : Progressive
Bits/(Pixel*Frame) : 0.168
Stream size : 1.68 GiB (73%)
Writing library : x264 core 152 r2851 ba24899
Encoding settings : cabac=1 / ref=11 / deblock=1:-3:-2 / analyse=0x3:0x133 / me=umh / subme=10 / psy=1 / psy_rd=1.00:0.00 / mixed_ref=1 / me_range=32 / chroma_me=1 / trellis=2 / 8x8dct=1 / cqm=0 / deadzone=21,11 / fast_pskip=0 / chroma_qp_offset=-2 / threads=6 / lookahead_threads=1 / sliced_threads=0 / nr=0 / decimate=1 / interlaced=0 / bluray_compat=0 / constrained_intra=0 / bframes=11 / b_pyramid=2 / b_adapt=2 / b_bias=0 / direct=1 / weightb=1 / open_gop=0 / weightp=2 / keyint=250 / keyint_min=23 / scenecut=40 / intra_refresh=0 / rc=crf / mbtree=0 / crf=19.2 / qcomp=0.65 / qpmin=0 / qpmax=69 / qpstep=4 / ip_ratio=1.40 / pb_ratio=1.30 / aq=3:0.90
Language : English
Default : Yes
Forced : No
Audio #2
ID : 2
Format : AC-3
Format/Info : Audio Coding 3
Mode extension : CM (complete main)
Format settings, Endianness : Big
Codec ID : A_AC3
Duration : 1h 47mn
Bit rate mode : Constant
Bit rate : 384 Kbps
Channel(s) : 6 channels
Channel positions : Front: L C R, Side: L R, LFE
Sampling rate : 48.0 KHz
Frame rate : 31.250 fps (1536 spf)
Compression mode : Lossy
Stream size : 294 MiB (12%)
Title : iTunes
Language : Russian
Default : Yes
Forced : No
Audio #3
ID : 3
Format : AC-3
Format/Info : Audio Coding 3
Mode extension : CM (complete main)
Format settings, Endianness : Big
Codec ID : A_AC3
Duration : 1h 47mn
Bit rate mode : Constant
Bit rate : 448 Kbps
Channel(s) : 6 channels
Channel positions : Front: L C R, Side: L R, LFE
Sampling rate : 48.0 KHz
Frame rate : 31.250 fps (1536 spf)
Compression mode : Lossy
Stream size : 343 MiB (15%)
Language : English
Default : No
Forced : No
Text #4
ID : 4
Format : UTF-8
Codec ID : S_TEXT/UTF8
Codec ID/Info : UTF-8 Plain Text
Duration : 1h 39mn
Bit rate : 104 bps
Count of elements : 1409
Stream size : 76.0 KiB (0%)
Title : Full
Language : Russian
Default : No
Forced : No
Text #5
ID : 5
Format : UTF-8
Codec ID : S_TEXT/UTF8
Codec ID/Info : UTF-8 Plain Text
Duration : 1h 39mn
Bit rate : 87 bps
Count of elements : 1540
Stream size : 63.3 KiB (0%)
Title : Full
Language : English
Default : No
Forced : No
Text #6
ID : 6
Format : UTF-8
Codec ID : S_TEXT/UTF8
Codec ID/Info : UTF-8 Plain Text
Duration : 1h 39mn
Bit rate : 69 bps
Count of elements : 1540
Stream size : 50.7 KiB (0%)
Title : SDH
Language : English
Default : No
Forced : No
raw [info]: 1152x482p 1:1 @ 24000/1001 fps (cfr)
x264 [info]: using SAR=1/1
x264 [info]: using cpu capabilities: MMX2 SSE2Fast SSSE3 SSE4.2 AVX XOP FMA3 BMI1
x264 [info]: profile High, level 4.1
x264 [info]: frame I:1336 Avg QP:15.58 size: 63686
x264 [info]: frame P:30096 Avg QP:17.30 size: 24648
x264 [info]: frame B:122668 Avg QP:19.50 size: 7950
x264 [info]: consecutive B-frames: 1.9% 2.1% 5.6% 11.9% 17.7% 39.7% 8.2% 2.3% 2.8% 1.8% 2.3% 3.6%
x264 [info]: mb I I16..4: 8.3% 79.7% 12.0%
x264 [info]: mb P I16..4: 1.3% 12.5% 1.5% P16..4: 37.0% 24.3% 15.2% 0.3% 0.1% skip: 7.8%
x264 [info]: mb B I16..4: 0.1% 1.0% 0.1% B16..8: 40.7% 11.7% 2.7% direct: 4.3% skip:39.4% L0:48.0% L1:44.6% BI: 7.4%
x264 [info]: 8x8 transform intra:81.6% inter:69.1%
x264 [info]: coded y,uvDC,uvAC intra: 83.8% 88.6% 72.3% inter: 22.3% 21.5% 5.3%
x264 [info]: i16 v,h,dc,p: 41% 13% 5% 41%
x264 [info]: i8 v,h,dc,ddl,ddr,vr,hd,vl,hu: 17% 8% 8% 9% 12% 13% 12% 11% 11%
x264 [info]: i4 v,h,dc,ddl,ddr,vr,hd,vl,hu: 25% 7% 3% 9% 13% 13% 11% 9% 9%
x264 [info]: i8c dc,h,v,p: 41% 21% 20% 17%
x264 [info]: Weighted P-Frames: Y:13.4% UV:9.7%
x264 [info]: ref P L0: 43.7% 8.5% 18.9% 7.2% 6.2% 4.1% 3.9% 2.0% 2.0% 1.5% 1.7% 0.2% 0.0%
x264 [info]: ref B L0: 64.6% 13.7% 7.7% 4.1% 3.0% 2.5% 2.0% 1.3% 0.8% 0.3%
x264 [info]: ref B L1: 92.1% 7.9%
x264 [info]: kb/s:2243.06

x264 [total]: encoded 154100 frames, 6.44 fps, 2243.06 kb/s


Внимание! AdBlock блокирует показ скриншотов, все вопросы к разработчикам )))
Трекер:  [ 10-Янв-2018 17:01 ]

  

Скачать .torrent

Размер .torrent файла 12 KB


Размер: 2.3 GB
Хэш (hash) релиза: 4b9464bbd15e82ba0feb4f614b617ea83fafe4b0
Подписка на обновления:

Торренты, похожие на Налетчики Marauders скачать торрент

Форум Название Автор Размер S L Добавлен
Зарубежные фильмы до 2016 ·· Налетчики / Marauders (Стивен С. Миллер / Steven C. Miller) [2016, Канада, боевик, триллер, криминал, BDRip 720p] Dub (line) + Sub Rus, Eng + Original Eng Galfimbul 50695228474.72 GB 0 0 1485188616

19:23

23-Янв-17

Зарубежные фильмы 2016-2019 (Новинки зарубежного кино) ·· Налетчики / Marauders (Стивен С. Миллер) [2016, боевик, BDRip 720p] Galfimbul 70815445476.6 GB 0 0 1472623820

09:10

31-Авг-16

Зарубежные фильмы 2016-2019 (Новинки зарубежного кино) ·· Налетчики / Marauders (Стивен С. Миллер) [2016, боевик, HDRip] Galfimbul 14679797761.37 GB 0 0 1472623814

09:10

31-Авг-16

Зарубежные фильмы 2016-2019 (Новинки зарубежного кино) ·· Налетчики / Marauders (Стивен С. Миллер) [2016, боевик, WEB-DLRip] Galfimbul 21867598082.04 GB 0 0 1470892267

08:11

11-Авг-16

Зарубежные фильмы 2016-2019 (Новинки зарубежного кино) ·· Налетчики / Marauders (Стивен С. Миллер) [2016, боевик, WEB-DLRip] Galfimbul 15718829911.46 GB 0 0 1468566595

10:09

15-Июл-16

Зарубежные фильмы 2016-2019 (Новинки зарубежного кино) ·· Налетчики / Marauders (Стивен С. Миллер) [2016, боевик, WEB-DL 720p] Galfimbul 37059015243.45 GB 0 0 1468393854

10:10

13-Июл-16

Зарубежные фильмы 2016-2019 (Новинки зарубежного кино) ·· Налетчики / Marauders (Джордж Арчэйнбод / George Archainbaud) [2016, Канада, боевик, WEB-DLRip] MVO (Parovoz Production) Galfimbul 15642023301.46 GB 0 0 1467867393

07:56

7-Июл-16

Зарубежные фильмы 2016-2019 (Новинки зарубежного кино) ·· Налетчики / Marauders (Стивен С. Миллер) [2016, боевик, WEB-DLRip] Galfimbul 15642030081.46 GB 0 0 1467801759

13:42

6-Июл-16

Зарубежные фильмы 2016-2019 (Новинки зарубежного кино) ·· Налетчики / Marauders (Стивен С. Миллер) [2016, боевик, WEB-DL 1080p] Galfimbul 41213086273.84 GB 0 0 1467801737

13:42

6-Июл-16

Зарубежные фильмы 2016-2019 (Новинки зарубежного кино) ·· Налетчики / Marauders (Стивен С. Миллер) [2016, боевик, WEB-DLRip] Galfimbul 14673264641.37 GB 0 0 1467777258

06:54

6-Июл-16

Зарубежные фильмы 2016-2019 (Новинки зарубежного кино) ·· Налетчики / Marauders (Стивен С. Миллер) [2016, боевик, WEB-DL 1080p] Galfimbul 39360238673.67 GB 0 0 1467777237

06:53

6-Июл-16

Зарубежные фильмы 2016-2019 (Новинки зарубежного кино) ·· Налетчики / Мародеры / Marauders (Стивен С. Миллер / Steven C. Miller) [2016, США, боевик, криминал, HDRip] Dub Galfimbul 781731840746 MB 0 0 1493211486

15:58

26-Апр-17

Зарубежные фильмы 2016-2019 (Новинки зарубежного кино) ·· Налетчики / Мародеры / Marauders (Стивен С. Миллер / Steven C. Miller) [2016, Канада, Боевик, BDRip] VO (Вячеслав Котов) + Original + Subs (rus,eng) Galfimbul 22718899332.12 GB 0 0 1473007358

19:42

4-Сен-16

Зарубежные фильмы 2016-2019 (Новинки зарубежного кино) ·· Налетчики / Мародеры / Marauders (Стивен С. Миллер / Steven C. Miller) [2016, Канада, Боевик, WEB-DLRip] VO (Вячеслав Котов) Galfimbul 781809664746 MB 0 0 1470992509

12:01

12-Авг-16

Зарубежные фильмы 2016-2019 (Новинки зарубежного кино) ·· Налетчики / Мародеры / Marauders (Стивен С. Миллер / Steven C. Miller) [2016, Канада, Боевик, WEB-DLRip] VO (Вячеслав Котов) + Original + Subs (rus,eng) Galfimbul 22705013892.11 GB 0 0 1470819044

11:50

10-Авг-16

Еще никто не оставлял запись к записи скачать торрент Налетчики Marauders . Будь первым!

!Обратная связь