Скачать через торрент Бэтмен против Двуликого Batman vs. Two-Face Фильм бесплатно в хорошем качестве torrent

Скачивайте на UnionPeer.org фильмы через торрент без регистрации. Новинки кино в хорошем качестве через торрент. На UnionPeer.org можно скачать через торрент фильмы 2014 и 2015 годов. Самые новые фильмы.

Скачать торрент Бэтмен против Двуликого Batman vs. Two-Face бесплатно через .torrent фильм мультфильм сериал

Статистика раздачи
Размер:  2.34 GB   |    Зарегистрирован:  6 месяцев   |    .torrent скачан:  168 раз   |   
Раздают:  1  
   
загрузка...
 
Автор Сообщение

Galfimbul

avatar Galfimbul


Наименование: Бэтмен против Двуликого
Оригинальное наименование: Batman vs. Two-Face
Произведено: США
Категория: мультфильм, боевик, комедия
Режиссер постановщик: Рик Моралес
В главных ролях: Адам Уэст, Берт Уорд, Уильям Шетнер, Джули Ньюмар, Джефф Бергман, Сирена Ирвин, Томас Леннон, Ли Меривезер, Уильям Салиерс, Линн Мари Стюарт

О фильме: Во время несчастного случая в лечебнице Аркхэм лицо Харви Дента оказывается изуродовано, что приводит к его раздвоению личности и превращению в Двуликого. Пока он устраивает хаос в Готэме, только Бэтмен и Робин могут его остановить.



Файл
Качество: BDRip 720p
Видео данные: MKV, 1280x720 (16:9), 23.976 fps, 4000 Кбит/с
Аудио данные: Русский AC3, 2 ch, 640 Кбит/с
Перевод: Любительский многоголосый (GreenРай Studio)
Продолжительность: 01:12:42

Над релизом работали:
Состав дикторов: Нана Саркисян и Илья Кочетков, Игорь Кузьмин
Руководитель проекта и координатор: Евгений Овчаренко
Организатор и координатор: Никита Марков
Пиар менеджер студии: Игорь Обухов
Техническая поддержка: Александр Методий
Над переводом работала: Любовь Геннадиевна
General
Unique ID : 246171609665094486246845088711988725379 (0xB932ED6D7121AF61A912D2C4459FC683)
Complete name : D:БэтменBatman.vs.Two.Faces.2017.P.BDRip.720p.mkv
Format : Matroska
Format version : Version 4 / Version 2
File size : 2.34 GiB
Duration : 1 h 12 min
Overall bit rate mode : Constant
Overall bit rate : 4 604 kb/s
Encoded date : UTC 2018-01-09 13:24:12
Writing application : mkvmerge v8.3.0 ('Over the Horizon') 64bit
Writing library : libebml v1.3.1 + libmatroska v1.4.2

Video
ID : 1
Format : AVC
Format/Info : Advanced Video Codec
Format profile : Main@L3.2
Format settings, CABAC : Yes
Format settings, ReFrames : 3 frames
Codec ID : V_MPEG4/ISO/AVC
Duration : 1 h 12 min
Bit rate mode : Constant
Bit rate : 4 000 kb/s
Width : 1 280 pixels
Height : 720 pixels
Display aspect ratio : 16:9
Frame rate mode : Constant
Frame rate : 23.976 (23976/1000) FPS
Standard : NTSC
Color space : YUV
Chroma subsampling : 4:2:0
Bit depth : 8 bits
Scan type : Progressive
Bits/(Pixel*Frame) : 0.181
Stream size : 2.01 GiB (86%)
Language : English
Default : Yes
Forced : No
Color range : Limited

Audio
ID : 2
Format : AC-3
Format/Info : Audio Coding 3
Mode extension : CM (complete main)
Format settings, Endianness : Big
Codec ID : A_AC3
Duration : 1 h 12 min
Bit rate mode : Constant
Bit rate : 640 kb/s
Channel(s) : 2 channels
Channel positions : Front: L R
Sampling rate : 48.0 kHz
Frame rate : 31.250 FPS (1536 spf)
Compression mode : Lossy
Stream size : 333 MiB (14%)
Default : Yes
Forced : No
ВНИМАНИЕ! Присутствует реклама! Релиз от:
Источник http://arutor.org

Трекер:  [ 11-Янв-2018 06:40 ]

  

Скачать .torrent

Размер .torrent файла 12 KB


Размер: 2.34 GB
Хэш (hash) релиза: a0303cee294f64095b7acc2bceab2a28b44dde4e
Подписка на обновления:

Еще никто не оставлял запись к записи скачать торрент Бэтмен против Двуликого Batman vs. Two-Face . Будь первым!

!Обратная связь