Скачать через торрент Секретные материалы The X-Files Фильм бесплатно в хорошем качестве torrent

Скачивайте на UnionPeer.org фильмы через торрент без регистрации. Новинки кино в хорошем качестве через торрент. На UnionPeer.org можно скачать через торрент фильмы 2014 и 2015 годов. Самые новые фильмы.

Скачать торрент Секретные материалы The X-Files бесплатно через .torrent фильм мультфильм сериал

Статистика раздачи
Размер:  2.11 GB   |    Зарегистрирован:  7 месяцев   |    .torrent скачан:  170 раз   |   
Раздают:  1  
   
загрузка...
 
Автор Сообщение

Galfimbul

avatar Galfimbul


Секретные материалы / The X-Files

Год выпуска: 2018
Страна: США
Жанр: Криминал, Драма, Фантастика
Продолжительность: 43 мин.

Перевод: Профессиональный (дублированный) ТВ-3

Режиссёр: Крис Картер / Chris Carter
В ролях: Дэвид Духовны, Джиллиан Андерсон, Роберт Патрик, Аннабет Гиш, Митч Пиледжи

Описание: Специальному агенту Дане Скалли, доктору и преподавателю академии ФБР в Вирджинии, поручают работу в паре с агентом Фоксом Малдером над проектом «Секретные материалы», архивом таинственных, нерешенных дел ФБР, которые зачастую связаны с паранормальными явлениями, случаями вампиризма и оборотничества, нападением генетических мутантов, свидетельствами о похищении людей пришельцами…

Малдер верит в пришельцев и пытается убедить скептика Скалли, что не всё и не всегда поддаётся разумному объяснению. В своих дискуссиях Малдер и Скалли не столько стараются убедить друг друга, сколько получают удовольствие от самого общения. Постепенно первоначальное взаимное недоверие перерастает в дружбу, а чуть позже и в более глубокое чувство.

Доп. информация: Рип с сайта ТВ-3

Сэмпл
Предыдущие и альтернативные раздачи

Качество: WEBRip 720p
Контейнер: MKV
Видео: H.264, 1280x720 (16:9), 25.000 fps, ~3500 kbps
Аудио: AAC, 44.1 kHz, 2 ch, 192 kbps
Субтитры: Отсутствуют
Реклама: Отсутствует
1. Моя борьба III / My Struggle III
2. Это / This
GeneralUnique ID : 253586035708379488558745266746592981202 (0xBEC6E4DAE2974B69B8B85FE9458DF0D2)Complete name : T:\The.X-Files.S11.720p.WEBRip.Rus\The.X-Files.S11E01.720p.WEBRip.Rus.mkvFormat : MatroskaFormat version : Version 4 / Version 2File size : 1.03 GiBDuration : 39 min 53 sOverall bit rate : 3 714 kb/sEncoded date : UTC 2018-01-11 21:27:47Writing application : mkvmerge v19.0.0 ('Brave Captain') 64-bitWriting library : libebml v1.3.5 + libmatroska v1.4.8

VideoID : 1Format : AVCFormat/Info : Advanced Video CodecFormat profile : High@L3.1Format settings, CABAC : YesFormat settings, ReFrames : 1 frameFormat settings, GOP : M=1, N=12Codec ID : V_MPEG4/ISO/AVCDuration : 39 min 53 sBit rate : 3 519 kb/sWidth : 1 280 pixelsHeight : 720 pixelsDisplay aspect ratio : 16:9Frame rate mode : ConstantFrame rate : 25.000 FPSStandard : ComponentColor space : YUVChroma subsampling : 4:2:0Bit depth : 8 bitsScan type : ProgressiveBits/(Pixel*Frame) : 0.153Stream size : 1 004 MiB (95%)Language : RussianDefault : YesForced : NoColor range : Limited

AudioID : 2Format : AACFormat/Info : Advanced Audio CodecFormat profile : LCCodec ID : A_AACDuration : 39 min 53 sBit rate : 192 kb/sChannel(s) : 2 channelsChannel positions : Front: L RSampling rate : 44.1 kHzFrame rate : 43.066 FPS (1024 spf)Compression mode : LossyStream size : 54.8 MiB (5%)Language : RussianDefault : YesForced : No


Трекер:  [ 12-Янв-2018 00:54 ]

  

Скачать .torrent

Размер .torrent файла 21 KB


Размер: 2.11 GB
Хэш (hash) релиза: 335a5cd0afd9adac5ea0168ed189d4244ef26e96
Подписка на обновления:

Еще никто не оставлял запись к записи скачать торрент Секретные материалы The X-Files . Будь первым!

!Обратная связь