Скачать через торрент Леди Бёрд Lady Bird Фильм бесплатно в хорошем качестве torrent

Скачивайте на UnionPeer.org фильмы через торрент без регистрации. Новинки кино в хорошем качестве через торрент. На UnionPeer.org можно скачать через торрент фильмы 2014 и 2015 годов. Самые новые фильмы.

Скачать торрент Леди Бёрд Lady Bird бесплатно через .torrent фильм мультфильм сериал

Статистика раздачи
Размер:  1.4 GB   |    Зарегистрирован:  3 месяца 11 дней   |    .torrent скачан:  102 раза   |   
Раздают:  1  
   
загрузка...
 
Автор Сообщение

Galfimbul

avatar Galfimbul


Леди Бёрд / Lady Bird

Страна: США
Жанр: Драма, Комедия
Год выпуска: 2017
Продолжительность: 01:52:36

Перевод: Субтитры (от PhysKids)
Субтитры: русские
Оригинальная аудиодорожка: английский

Режиссер: Грета Гервиг / Greta Gerwig

В ролях: Сирша Ронан, Тимоти Шаламе, Одейя Раш, Лори Меткаф, Лукас Хеджес, Кэтрин Ньютон, Бини Фелдштейн, Джейк Макдорман, Трэйси Леттс, Даниэль МакДональд

Описание: История старшеклассницы Кристины МакФерсон, которая пытается сбежать из своего маленького городка в Нью-Йорк, заручившись поддержкой приёмного старшего брата. История о первой любви, настоящей дружбе и попытке найти своё место в жизни.



Сэмпл: http://multi-up.com/1182920

Качество видео: DVDScreener
Формат видео: AVI

Видео: XviD, 720*384, 30000 кадров/сек, 1884 Кбит/сек
Аудио: АС3, 48,0 КГц, 256 Кбит/сек, 2 канала
Формат субтитров: softsub (SRT)
ОбщееПолное имя : D:\Download\Lady.Bird.2017.DVDScr.XVID.AC3.HQ.Hive-CM8[EtMovies]\Lady.Bird.2017.DVDScr.XVID.AC3.HQ.Hive-CM8[EtMovies].aviФормат : AVIФормат/Информация : Audio Video InterleaveРазмер файла : 1,40 ГбайтПродолжительность : 1 ч. 32 м.Общий поток : 2151 Кбит/секПрограмма кодирования : Nandub v1.0rc2Библиотека кодирования : Nandub build 1853/release

ВидеоИдентификатор : 0Формат : MPEG-4 VisualПрофиль формата : Advanced Simple@L5Настройки формата : BVOP2 / QPelПараметр BVOP формата : 2Параметр QPel формата : ДаПараметр GMC формата : Без точки переходаПараметр матрицы формата : Default (H.263)Режим смешивания : Сжатый битовый потокИдентификатор кодека : XVIDИдентификатор кодека/Подсказка : XviDПродолжительность : 1 ч. 32 м.Битрейт : 1884 Кбит/секШирина : 720 пикселейВысота : 384 пикселяСоотношение сторон : 1,85:1Частота кадров : 30,000 кадров/секЦветовое пространство : YUVСубдискретизация насыщенности : 4:2:0Битовая глубина : 8 битТип развёртки : ПрогрессивнаяМетод сжатия : С потерямиБит/(Пиксели*Кадры) : 0.227Размер потока : 1,22 Гбайт (88%)Библиотека кодирования : XviD 1.2.1 (UTC 2008-12-04)

АудиоИдентификатор : 1Формат : AC-3Формат/Информация : Audio Coding 3Идентификатор кодека : 2000Продолжительность : 1 ч. 32 м.Вид битрейта : ПостоянныйБитрейт : 256 Кбит/секКаналы : 2 каналаРасположение каналов : Front: L RЧастота : 48,0 КГцЧастота кадров : 31,250 кадров/сек (1536 SPF)Битовая глубина : 16 битМетод сжатия : С потерямиЗадержка видео : 12 мс.Размер потока : 170 Мбайт (12%)Выравнивание : Разделение по промежуткамПродолжительность промежутка : 33 мс. (1,00 видеокадр)Время предзагрузки промежутка : 500 мс.ServiceKind/String : Complete Main
6
00:00:37,500 --> 00:00:38,800
Готова ехать домой?

7
00:00:38,800 --> 00:00:39,720
Готова.

8
00:00:40,640 --> 00:00:47,500
Её рука передвинулась к его затылку,
пальцы нежно поглаживали его волосы.

9
00:00:48,800 --> 00:00:57,000
Она подняла глаза, губы её сомкнулись
и застыли в таинственной улыбке.

10
00:01:00,020 --> 00:01:05,780
Вы слушали роман «Гроздья гнева»
Джона Стейнбека. Если вы…

11
00:01:08,920 --> 00:01:12,720
Наша дорога до колледжа длилась
21 час и 5 минут.

12
00:01:18,380 --> 00:01:21,340
Погоди-погоди, давай просто посидим
и обдумаем то, что услышали.

13
00:01:23,240 --> 00:01:24,360
Ты серьёзно?

14
00:01:24,360 --> 00:01:27,420
Нам же не нужно постоянно
себя развлекать, правда?

15
00:01:35,760 --> 00:01:37,860
Я бы хотела проживать какие-то моменты.


Трекер:  [ 12-Янв-2018 16:30 ]

  

Скачать .torrent

Размер .torrent файла 14 KB


Размер: 1.4 GB
Хэш (hash) релиза: c82b28bed03fc57e6a6a9a20e046d549bfa68c52
Подписка на обновления:

Торренты, похожие на Леди Бёрд Lady Bird скачать торрент

Форум Название Автор Размер S L Добавлен
Зарубежные фильмы до 2016 ·· Леди Бёрд / Lady Bird (Грета Гервиг / Greta Gerwig) [2017, США, драма, комедия, BDRip 720p] MVO + Original Eng + Sub (Rus, Eng) Galfimbul 51770745364.82 GB 0 0 1520060971

10:09

3-Мар-18

Зарубежные фильмы 2016-2018 (Новинки зарубежного кино) ·· Леди Бёрд / Lady Bird (Грета Гервиг / Greta Gerwig) [2017, США, драма, комедия, BDRip 720p] HDrezka Studio Galfimbul 47246964734.4 GB 0 0 1519991452

14:50

2-Мар-18

Зарубежные фильмы 2016-2018 (Новинки зарубежного кино) ·· Леди Бёрд / Lady Bird (Грета Гервиг / Greta Gerwig) [2017, США, драма, комедия, BDRip 1080p] HDrezka Studio Galfimbul 93107985228.67 GB 0 0 1519987219

13:40

2-Мар-18

Зарубежные фильмы 2016-2018 (Новинки зарубежного кино) ·· Леди Бёрд / Lady Bird (Грета Гервиг / Greta Gerwig) [2017, США, Драма, комедия, BDRip] HDrezka Studio Galfimbul 15238778881.42 GB 0 0 1519822220

15:50

28-Фев-18

Зарубежные фильмы 2016-2018 (Новинки зарубежного кино) ·· Леди Бёрд / Lady Bird (Грета Гервиг / Greta Gerwig) [2017, США, Драма, комедия, WEB-DLRip] MVO + Original (Eng) + Subs (Rus, Eng) Galfimbul 15667396221.46 GB 0 0 1519230623

19:30

21-Фев-18

Зарубежные фильмы 2016-2018 (Новинки зарубежного кино) ·· Леди Бёрд / Lady Bird (Грета Гервиг / Greta Gerwig) [2017, США, драма, комедия, WEB-DLRip] HDrezka Studio Galfimbul 15744518401.47 GB 0 0 1519194666

09:31

21-Фев-18

Зарубежные фильмы 2016-2018 (Новинки зарубежного кино) ·· Леди Бёрд / Lady Bird (Грета Гервиг / Greta Gerwig) [2017, США, драма, комедия, WEBRip 1080p] Galfimbul 67092582896.25 GB 0 0 1519162215

00:30

21-Фев-18

Зарубежные фильмы 2016-2018 (Новинки зарубежного кино) ·· Леди Бёрд / Lady Bird (Грета Гервиг / Greta Gerwig) [2017, США, драма, комедия, WEBRip 720p] Galfimbul 35362514943.29 GB 0 0 1519058411

19:40

19-Фев-18

Зарубежные фильмы 2016-2018 (Новинки зарубежного кино) ·· Леди Бёрд / Lady Bird (Грета Гервиг / Greta Gerwig) [2017, США, драма, комедия, WEB-DLRip-AVC] Original Eng + Subs (Rus, Eng) Galfimbul 23518457672.19 GB 0 0 1518863419

13:30

17-Фев-18

Еще никто не оставлял запись к записи скачать торрент Леди Бёрд Lady Bird . Будь первым!

!Обратная связь