Скачать через торрент Объект 11 Сезон: 1 Фильм бесплатно в хорошем качестве torrent

Скачивайте на UnionPeer.org фильмы через торрент без регистрации. Новинки кино в хорошем качестве через торрент. На UnionPeer.org можно скачать через торрент фильмы 2014 и 2015 годов. Самые новые фильмы.

Скачать торрент Объект 11 Сезон: 1 бесплатно через .torrent фильм мультфильм сериал

Статистика раздачи
Размер:  7.53 GB   |    Зарегистрирован:  4 месяца 8 дней   |    .torrent скачан:  163 раза   |   
Раздают:  1  
   
загрузка...
 
Автор Сообщение

Galfimbul

avatar Galfimbul


Объект 11

Год выпуска: 2011
Производство: РУССКОЕ СЧАСТЬЕ ДИСТРИБЬЮШН
Жанр: Детектив, мистика
Продолжительность: 704 минуты
Субтитры: нет

Режиссёр: Всеволод Аравин

В ролях: Александр Яковлев, Андрей Ташков, Вячеслав Разбегаев, Ольга Ломоносова, Людмила Свитова, Дана Агишева, Антон Шурцов, Андрей Плавун, Александр Ульянкин, Екатерина Носик

Описание: Спецотдел «Объект 11» был сформирован еще в советские времена органами госбезопасности, для того,
чтобы решать неразрешимые стандартными методами задачи. Особенность «Объекта 11» заключалась в
том, что большинство входивших в состав группы людей были наделены сверхспособностями. В перестройку
«Объект 11» был расформирован, но недавно было принято решение снова его воссоздать.
Собрать и возглавить спецотдел поручено полковнику Сомову, возглавлявшему «Объект 11» в 80-е годы.
Первый, кого Сомов позовет войти в состав «Объекта 11» — его бывший соратник и друг, гипнотизер
и чтец мыслей Анатолий Романов.Но помогут ли потусторонние силы раскрыть все преступления и
поймать всех преступников.

Реклама: Нет

Качество: DVD9
Формат: DVD-Video
Видео кодек: MPEG2
Аудио кодек: AC3
Видео: Video: MPEG2 Video 480x576 (16:9) 25fps~ 1519.24 kbps avg
Аудио: Audio #1: AC3, 2/0 (L,R) ch, 96 kbps, Delay 0 mSec
General
Complete name : E:\Torrent\Объект 11 (DVD 9)\VIDEO_TS\VTS_01_8.VOB
Format : MPEG-PS
File size : 689 MiB
Duration : 1h 5mn
Overall bit rate mode : Variable
Overall bit rate : 1 481 Kbps

Video
ID : 224 (0xE0)
Format : MPEG Video
Format version : Version 2
Format profile : Main@Main
Format settings, BVOP : Yes
Format settings, Matrix : Default
Format settings, GOP : Variable
Duration : 1h 5mn
Bit rate mode : Variable
Bit rate : 1 355 Kbps
Width : 480 pixels
Height : 576 pixels
Display aspect ratio : 16:9
Frame rate : 25.000 fps
Color space : YUV
Chroma subsampling : 4:2:0
Bit depth : 8 bits
Scan type : Progressive
Compression mode : Lossy
Bits/(Pixel*Frame) : 0.196
Time code of first frame : 00:24:38:03
Time code source : Group of pictures header
Stream size : 631 MiB (92%)

Audio
ID : 189 (0xBD)-128 (0x80)
Format : AC-3
Format/Info : Audio Coding 3
Mode extension : CM (complete main)
Format settings, Endianness : Big
Muxing mode : DVD-Video
Duration : 1h 5mn
Bit rate mode : Constant
Bit rate : 96.0 Kbps
Channel(s) : 2 channels
Channel positions : Front: L R
Sampling rate : 48.0 KHz
Bit depth : 16 bits
Compression mode : Lossy
Delay relative to video : -80ms
Stream size : 44.7 MiB (6%)

Menu
Title: Объект 11 (DVD 9)
Size: 7.53 Gb ( 7 899 880,00 KBytes ) - DVD-9
Enabled regions: 1, 2, 3, 4, 5, 6, 7, 8

VTS_01 :
Play Length: 01:28:32+01:28:14+01:28:23+01:28:31+01:28:55+01:29:08+01:28:25+01:29:41
Video: PAL 16:9 (720x576) VBR, Auto Letterboxed
Audio:
English, AC3, 2/0 (L,R) ch, 96 kbps, Delay 0 mSec

VTS_02 :
Play Length: 00:00:08
Video: PAL 16:9 (720x576) VBR, Auto Letterboxed
Audio:
English (Dolby AC3, 2 ch)
Предыдущие и альтернативные раздачи

Трекер:  [ 13-Янв-2018 00:18 ]

  

Скачать .torrent

Размер .torrent файла 39 KB


Размер: 7.53 GB
Хэш (hash) релиза: 5a99ee125001e52c239e70618099800a7127ad49
Подписка на обновления:

Еще никто не оставлял запись к записи скачать торрент Объект 11 Сезон: 1 . Будь первым!

!Обратная связь