Скачать через торрент Стэнд-Ап Шоу Стенд-Ап Шоу Фильм бесплатно в хорошем качестве torrent

Скачивайте на UnionPeer.org фильмы через торрент без регистрации. Новинки кино в хорошем качестве через торрент. На UnionPeer.org можно скачать через торрент фильмы 2014 и 2015 годов. Самые новые фильмы.

Скачать торрент Стэнд-Ап Шоу Стенд-Ап Шоу бесплатно через .torrent фильм мультфильм сериал

Статистика раздачи
Размер:  1.86 GB   |    Зарегистрирован:  7 месяцев   |    .torrent скачан:  5 раз   |   
Раздают:  1  
   
загрузка...
 
Автор Сообщение

Galfimbul

avatar Galfimbul


Стэнд-Ап Шоу / Стенд-Ап Шоу

Дата/Год выпуска: 2014
Страна: Украина
Жанр: Юмор
Продолжительность: 07:02:28
Перевод: Не требуется
Русские субтитры: нет

Телеканал: Новый канал
Описание: Андрей Шабанов ищет самого смешного стендап-комика Украины!

45 минут смеха – так тремя словами можно описать новый юмористический проект Нового канала «Стэнд-Ап Шоу». Продакшн Андрея Шабанова готовит десять выпусков первого в Украине проекта в жанре стендап. Сам Андрей выступает в качестве продюсера и ведущего.

– Мы определим самого смешного комика страны в разговорном жанре. Особенность стендапа в том, что комик делится СВОИМИ переживаниями и наблюдениями с залом. И если его проблемы знакомы залу, это вызывает смех. Но мой рассказ – это как попытка на пальцах показать, как поет Шаляпин. Лучше один раз увидеть, – говорит Шабанов.

Замысел шоу полностью соответствует названию – участники выходят на сцену и шутят. Победитель получит всеукраинскую славу и… 50 тысяч гривен в придачу. Лучшего будут определять зрители в зале, смехолайзер и Человек-Конь.

Смехолайзер, по словам создателей проекта, – уникальный аппарат. Разработанный в секретной лаборатории, он будет определять уровень смеха в зале. Чем громче хохот, тем выше показания устройства и шансы на победу.

Человек с головой коня управляет смехолайзером. Он, как ни странно, с секретными исследованиями не связан. По рассказам все тех же создателей, просто так часто ржал на выступлениях «Стэнд-Ап Шоу», что, в конце концов, его голова превратилась в лошадиную.

Смотрите «Стэнд-Ап Шоу» с 4 октября по субботам в 22:30 на Новом канале!

качество: TVRip
формат: MP4
Видео: avc1, 640px x 360px, 16:9, 544 kbps, 25 fps
Аудио: AAC, 96 kbps, 44.1 kHz, 2 ch
Стэнд-Ап Шоу S01E01 2014-10-04
Андрей Кукса, Максим Заяц, Максим Коновал, Полина Голованова, Антон Борисов

Стэнд-Ап Шоу S01E02 2014-10-11
Женя Кожевин, Максим Коновал, Артем Гаус, Андрей Колмачевский, Максим Заяц

Стэнд-Ап Шоу S01E03 2014-10-18
Максим Коновал, Свят Загайкевич, Давид Нацваладзе, Женя Кожевин, Максим Заяц

Стэнд-Ап Шоу S01E04 2014-10-25
Андрей Колмачевский, Максим Коновал, Ростислав Шлапак, Полина Голованова, Андрей Волковинцев, Миха Воронов

Стэнд-Ап Шоу S01E05 2014-11-01
Максим Коновал, Свят Загайкевич, Кирилл Сиэтлов, Женя Кожевин, Николай Тисенко, Данил Белый

Стэнд-Ап Шоу S01E06 2014-11-08
Максим Коновал, Женя Кожевин, Андрей Кит, Кирилл Сиэтлов, Свят Загайкевич

Стэнд-Ап Шоу S01E07 2014-11-15
Максим Коновал, Дима Зеленов, Максим Заяц, Андрей Кит, Денис Сорока, Артем Гаус

Стэнд-Ап Шоу S01E08 2014-12-06
Андрей Колмачевский, Кирилл Сиэтлов, Данил Белый, Полина Голованова, Денис Романцов, Денис Сорока

Стэнд-Ап Шоу S01E09 2014-12-13
Антон Борисов, Николай Тисенко, Дима Зеленов, Андрей Кит, Свят Загайкевич, Данил Белый

Стэнд-Ап Шоу S01E10 Финал 2014-12-19
Максим Заяц, Женя Кожевин, Свят Загайкевич, Максим Коновал, Андрей Колмачевский, Денис Романцов
GeneralComplete name : D:\torrents\Стэнд-Ап Шоу\Стэнд-Ап Шоу S01E01 2014-10-04.mp4Format : MPEG-4Format profile : Base Media / Version 2Codec ID : mp42 (isom/mp42)File size : 195 MiBDuration : 42 min 21 sOverall bit rate mode : VariableOverall bit rate : 642 kb/sEncoded date : UTC 2015-04-01 10:52:08Tagged date : UTC 2015-04-01 10:52:08

VideoID : 1Format : AVCFormat/Info : Advanced Video CodecFormat profile : Baseline@L3Format settings : 1 Ref FramesFormat settings, CABAC : NoFormat settings, RefFrames : 1 frameCodec ID : avc1Codec ID/Info : Advanced Video CodingDuration : 42 min 21 sBit rate : 544 kb/sMaximum bit rate : 1 749 kb/sWidth : 640 pixelsHeight : 360 pixelsDisplay aspect ratio : 16:9Frame rate mode : ConstantFrame rate : 25.000 FPSColor space : YUVChroma subsampling : 4:2:0Bit depth : 8 bitsScan type : ProgressiveBits/(Pixel*Frame) : 0.094Stream size : 165 MiB (85%)Encoded date : UTC 1970-01-01 00:00:00Tagged date : UTC 2015-04-01 10:52:18

AudioID : 2Format : AACFormat/Info : Advanced Audio CodecFormat profile : LCCodec ID : mp4a-40-2Duration : 42 min 21 sBit rate mode : VariableBit rate : 96.0 kb/sMaximum bit rate : 102 kb/sChannel(s) : 2 channelsChannel positions : Front: L RSampling rate : 44.1 kHzFrame rate : 43.066 FPS (1024 SPF)Compression mode : LossyStream size : 29.1 MiB (15%)Title : IsoMedia File Produced by Google, 5-11-2011Language : EnglishEncoded date : UTC 2015-04-01 10:52:14Tagged date : UTC 2015-04-01 10:52:18

GeneralComplete name : D:\torrents\Стэнд-Ап Шоу\Стэнд-Ап Шоу S01E02 2014-10-11.mp4Format : MPEG-4Format profile : Base Media / Version 2Codec ID : mp42 (isom/mp42)File size : 206 MiBDuration : 43 min 45 sOverall bit rate mode : VariableOverall bit rate : 658 kb/sEncoded date : UTC 2015-07-26 08:57:12Tagged date : UTC 2015-07-26 08:57:12

VideoID : 1Format : AVCFormat/Info : Advanced Video CodecFormat profile : Baseline@L3Format settings : 1 Ref FramesFormat settings, CABAC : NoFormat settings, RefFrames : 1 frameCodec ID : avc1Codec ID/Info : Advanced Video CodingDuration : 43 min 45 sBit rate : 559 kb/sMaximum bit rate : 1 450 kb/sWidth : 640 pixelsHeight : 360 pixelsDisplay aspect ratio : 16:9Frame rate mode : ConstantFrame rate : 25.000 FPSColor space : YUVChroma subsampling : 4:2:0Bit depth : 8 bitsScan type : ProgressiveBits/(Pixel*Frame) : 0.097Stream size : 175 MiB (85%)Tagged date : UTC 2015-07-26 08:57:21

AudioID : 2Format : AACFormat/Info : Advanced Audio CodecFormat profile : LCCodec ID : mp4a-40-2Duration : 43 min 45 sBit rate mode : VariableBit rate : 96.0 kb/sMaximum bit rate : 102 kb/sChannel(s) : 2 channelsChannel positions : Front: L RSampling rate : 44.1 kHzFrame rate : 43.066 FPS (1024 SPF)Compression mode : LossyStream size : 30.0 MiB (15%)Title : IsoMedia File Produced by Google, 5-11-2011Language : EnglishEncoded date : UTC 2015-07-26 08:57:17Tagged date : UTC 2015-07-26 08:57:21

GeneralComplete name : D:\torrents\Стэнд-Ап Шоу\Стэнд-Ап Шоу S01E03 2014-10-18.mp4Format : MPEG-4Format profile : Base Media / Version 2Codec ID : mp42 (isom/mp42)File size : 195 MiBDuration : 40 min 13 sOverall bit rate mode : VariableOverall bit rate : 679 kb/sEncoded date : UTC 2014-11-10 04:00:59Tagged date : UTC 2014-11-10 04:00:59

VideoID : 1Format : AVCFormat/Info : Advanced Video CodecFormat profile : Baseline@L3Format settings : 1 Ref FramesFormat settings, CABAC : NoFormat settings, RefFrames : 1 frameCodec ID : avc1Codec ID/Info : Advanced Video CodingDuration : 40 min 13 sBit rate : 580 kb/sMaximum bit rate : 1 738 kb/sWidth : 640 pixelsHeight : 360 pixelsDisplay aspect ratio : 16:9Frame rate mode : ConstantFrame rate : 25.000 FPSColor space : YUVChroma subsampling : 4:2:0Bit depth : 8 bitsScan type : ProgressiveBits/(Pixel*Frame) : 0.101Stream size : 167 MiB (85%)Tagged date : UTC 2014-11-10 04:01:15

AudioID : 2Format : AACFormat/Info : Advanced Audio CodecFormat profile : LCCodec ID : mp4a-40-2Duration : 40 min 13 sBit rate mode : VariableBit rate : 96.0 kb/sMaximum bit rate : 102 kb/sChannel(s) : 2 channelsChannel positions : Front: L RSampling rate : 44.1 kHzFrame rate : 43.066 FPS (1024 SPF)Compression mode : LossyStream size : 27.6 MiB (14%)Title : IsoMedia File Produced by Google, 5-11-2011Encoded date : UTC 2014-11-10 04:01:08Tagged date : UTC 2014-11-10 04:01:15

GeneralComplete name : D:\torrents\Стэнд-Ап Шоу\Стэнд-Ап Шоу S01E04 2014-10-25.mp4Format : MPEG-4Format profile : Base Media / Version 2Codec ID : mp42 (isom/mp42)File size : 189 MiBDuration : 41 min 29 sOverall bit rate mode : VariableOverall bit rate : 638 kb/sEncoded date : UTC 2014-11-08 05:16:17Tagged date : UTC 2014-11-08 05:16:17

VideoID : 1Format : AVCFormat/Info : Advanced Video CodecFormat profile : Baseline@L3Format settings : 1 Ref FramesFormat settings, CABAC : NoFormat settings, RefFrames : 1 frameCodec ID : avc1Codec ID/Info : Advanced Video CodingDuration : 41 min 29 sBit rate : 539 kb/sMaximum bit rate : 1 748 kb/sWidth : 640 pixelsHeight : 360 pixelsDisplay aspect ratio : 16:9Frame rate mode : ConstantFrame rate : 25.000 FPSColor space : YUVChroma subsampling : 4:2:0Bit depth : 8 bitsScan type : ProgressiveBits/(Pixel*Frame) : 0.094Stream size : 160 MiB (85%)Tagged date : UTC 2014-11-08 05:16:39

AudioID : 2Format : AACFormat/Info : Advanced Audio CodecFormat profile : LCCodec ID : mp4a-40-2Duration : 41 min 29 sBit rate mode : VariableBit rate : 96.0 kb/sMaximum bit rate : 102 kb/sChannel(s) : 2 channelsChannel positions : Front: L RSampling rate : 44.1 kHzFrame rate : 43.066 FPS (1024 SPF)Compression mode : LossyStream size : 28.5 MiB (15%)Title : IsoMedia File Produced by Google, 5-11-2011Encoded date : UTC 2014-11-08 05:16:29Tagged date : UTC 2014-11-08 05:16:39

GeneralComplete name : D:\torrents\Стэнд-Ап Шоу\Стэнд-Ап Шоу S01E05 2014-11-01.mp4Format : MPEG-4Format profile : Base Media / Version 2Codec ID : mp42 (isom/mp42)File size : 202 MiBDuration : 42 min 10 sOverall bit rate mode : VariableOverall bit rate : 670 kb/sEncoded date : UTC 2014-11-07 02:57:43Tagged date : UTC 2014-11-07 02:57:43

VideoID : 1Format : AVCFormat/Info : Advanced Video CodecFormat profile : Baseline@L3Format settings : 1 Ref FramesFormat settings, CABAC : NoFormat settings, RefFrames : 1 frameCodec ID : avc1Codec ID/Info : Advanced Video CodingDuration : 42 min 10 sBit rate : 572 kb/sMaximum bit rate : 1 576 kb/sWidth : 640 pixelsHeight : 360 pixelsDisplay aspect ratio : 16:9Frame rate mode : ConstantFrame rate : 25.000 FPSColor space : YUVChroma subsampling : 4:2:0Bit depth : 8 bitsScan type : ProgressiveBits/(Pixel*Frame) : 0.099Stream size : 172 MiB (85%)Tagged date : UTC 2014-11-07 02:58:01

AudioID : 2Format : AACFormat/Info : Advanced Audio CodecFormat profile : LCCodec ID : mp4a-40-2Duration : 42 min 10 sBit rate mode : VariableBit rate : 96.0 kb/sMaximum bit rate : 102 kb/sChannel(s) : 2 channelsChannel positions : Front: L RSampling rate : 44.1 kHzFrame rate : 43.066 FPS (1024 SPF)Compression mode : LossyStream size : 29.0 MiB (14%)Title : IsoMedia File Produced by Google, 5-11-2011Encoded date : UTC 2014-11-07 02:57:53Tagged date : UTC 2014-11-07 02:58:01

GeneralComplete name : D:\torrents\Стэнд-Ап Шоу\Стэнд-Ап Шоу S01E06 2014-11-08.mp4Format : MPEG-4Format profile : Base Media / Version 2Codec ID : mp42 (isom/mp42)File size : 204 MiBDuration : 42 min 41 sOverall bit rate mode : VariableOverall bit rate : 667 kb/sEncoded date : UTC 2015-06-08 05:03:45Tagged date : UTC 2015-06-08 05:03:45

VideoID : 1Format : AVCFormat/Info : Advanced Video CodecFormat profile : Baseline@L3Format settings : 1 Ref FramesFormat settings, CABAC : NoFormat settings, RefFrames : 1 frameCodec ID : avc1Codec ID/Info : Advanced Video CodingDuration : 42 min 41 sBit rate : 569 kb/sMaximum bit rate : 1 363 kb/sWidth : 640 pixelsHeight : 360 pixelsDisplay aspect ratio : 16:9Frame rate mode : ConstantFrame rate : 25.000 FPSColor space : YUVChroma subsampling : 4:2:0Bit depth : 8 bitsScan type : ProgressiveBits/(Pixel*Frame) : 0.099Stream size : 174 MiB (85%)Tagged date : UTC 2015-06-08 05:03:57

AudioID : 2Format : AACFormat/Info : Advanced Audio CodecFormat profile : LCCodec ID : mp4a-40-2Duration : 42 min 41 sBit rate mode : VariableBit rate : 96.0 kb/sMaximum bit rate : 102 kb/sChannel(s) : 2 channelsChannel positions : Front: L RSampling rate : 44.1 kHzFrame rate : 43.066 FPS (1024 SPF)Compression mode : LossyStream size : 29.3 MiB (14%)Title : IsoMedia File Produced by Google, 5-11-2011Language : EnglishEncoded date : UTC 2015-06-08 05:03:52Tagged date : UTC 2015-06-08 05:03:57

GeneralComplete name : D:\torrents\Стэнд-Ап Шоу\Стэнд-Ап Шоу S01E07 2014-11-15.mp4Format : MPEG-4Format profile : Base Media / Version 2Codec ID : mp42 (isom/mp42)File size : 163 MiBDuration : 39 min 23 sOverall bit rate mode : VariableOverall bit rate : 578 kb/sEncoded date : UTC 2014-11-30 13:08:25Tagged date : UTC 2014-11-30 13:08:25

VideoID : 1Format : AVCFormat/Info : Advanced Video CodecFormat profile : Baseline@L3Format settings : 1 Ref FramesFormat settings, CABAC : NoFormat settings, RefFrames : 1 frameCodec ID : avc1Codec ID/Info : Advanced Video CodingDuration : 39 min 23 sBit rate : 479 kb/sMaximum bit rate : 1 619 kb/sWidth : 640 pixelsHeight : 352 pixelsDisplay aspect ratio : 16:9Frame rate mode : ConstantFrame rate : 25.000 FPSColor space : YUVChroma subsampling : 4:2:0Bit depth : 8 bitsScan type : ProgressiveBits/(Pixel*Frame) : 0.085Stream size : 135 MiB (83%)Tagged date : UTC 2014-11-30 13:08:40

AudioID : 2Format : AACFormat/Info : Advanced Audio CodecFormat profile : LCCodec ID : mp4a-40-2Duration : 39 min 23 sBit rate mode : VariableBit rate : 96.0 kb/sMaximum bit rate : 102 kb/sChannel(s) : 2 channelsChannel positions : Front: L RSampling rate : 44.1 kHzFrame rate : 43.066 FPS (1024 SPF)Compression mode : LossyStream size : 27.1 MiB (17%)Title : IsoMedia File Produced by Google, 5-11-2011Encoded date : UTC 2014-11-30 13:08:33Tagged date : UTC 2014-11-30 13:08:40

GeneralComplete name : D:\torrents\Стэнд-Ап Шоу\Стэнд-Ап Шоу S01E08 2014-12-06.mp4Format : MPEG-4Format profile : Base Media / Version 2Codec ID : mp42 (isom/mp42)File size : 176 MiBDuration : 41 min 35 sOverall bit rate mode : VariableOverall bit rate : 591 kb/sEncoded date : UTC 2014-12-07 09:48:12Tagged date : UTC 2014-12-07 09:48:12

VideoID : 1Format : AVCFormat/Info : Advanced Video CodecFormat profile : Baseline@L3Format settings : 1 Ref FramesFormat settings, CABAC : NoFormat settings, RefFrames : 1 frameCodec ID : avc1Codec ID/Info : Advanced Video CodingDuration : 41 min 35 sBit rate : 493 kb/sMaximum bit rate : 1 353 kb/sWidth : 640 pixelsHeight : 352 pixelsDisplay aspect ratio : 16:9Frame rate mode : ConstantFrame rate : 25.000 FPSColor space : YUVChroma subsampling : 4:2:0Bit depth : 8 bitsScan type : ProgressiveBits/(Pixel*Frame) : 0.088Stream size : 147 MiB (83%)Tagged date : UTC 2014-12-07 09:48:23

AudioID : 2Format : AACFormat/Info : Advanced Audio CodecFormat profile : LCCodec ID : mp4a-40-2Duration : 41 min 35 sBit rate mode : VariableBit rate : 96.0 kb/sMaximum bit rate : 103 kb/sChannel(s) : 2 channelsChannel positions : Front: L RSampling rate : 44.1 kHzFrame rate : 43.066 FPS (1024 SPF)Compression mode : LossyStream size : 28.6 MiB (16%)Title : IsoMedia File Produced by Google, 5-11-2011Encoded date : UTC 2014-12-07 09:48:18Tagged date : UTC 2014-12-07 09:48:23

GeneralComplete name : D:\torrents\Стэнд-Ап Шоу\Стэнд-Ап Шоу S01E09 2014-12-13.mp4Format : MPEG-4Format profile : Base Media / Version 2Codec ID : mp42 (isom/mp42)File size : 183 MiBDuration : 41 min 23 sOverall bit rate mode : VariableOverall bit rate : 617 kb/sEncoded date : UTC 2014-12-22 14:26:57Tagged date : UTC 2014-12-22 14:26:57

VideoID : 1Format : AVCFormat/Info : Advanced Video CodecFormat profile : Baseline@L3Format settings : 1 Ref FramesFormat settings, CABAC : NoFormat settings, RefFrames : 1 frameCodec ID : avc1Codec ID/Info : Advanced Video CodingDuration : 41 min 23 sBit rate : 519 kb/sMaximum bit rate : 1 582 kb/sWidth : 640 pixelsHeight : 352 pixelsDisplay aspect ratio : 16:9Frame rate mode : ConstantFrame rate : 25.000 FPSColor space : YUVChroma subsampling : 4:2:0Bit depth : 8 bitsScan type : ProgressiveBits/(Pixel*Frame) : 0.092Stream size : 154 MiB (84%)Tagged date : UTC 2014-12-22 14:27:31

AudioID : 2Format : AACFormat/Info : Advanced Audio CodecFormat profile : LCCodec ID : mp4a-40-2Duration : 41 min 23 sBit rate mode : VariableBit rate : 96.0 kb/sMaximum bit rate : 103 kb/sChannel(s) : 2 channelsChannel positions : Front: L RSampling rate : 44.1 kHzFrame rate : 43.066 FPS (1024 SPF)Compression mode : LossyStream size : 28.4 MiB (16%)Title : IsoMedia File Produced by Google, 5-11-2011Encoded date : UTC 2014-12-22 14:27:14Tagged date : UTC 2014-12-22 14:27:31

GeneralComplete name : D:\torrents\Стэнд-Ап Шоу\Стэнд-Ап Шоу S01E10 Финал 2014-12-19.mp4Format : MPEG-4Format profile : Base Media / Version 2Codec ID : mp42 (isom/mp42)File size : 188 MiBDuration : 47 min 24 sOverall bit rate mode : VariableOverall bit rate : 554 kb/sEncoded date : UTC 2015-01-01 08:36:54Tagged date : UTC 2015-01-01 08:36:54

VideoID : 1Format : AVCFormat/Info : Advanced Video CodecFormat profile : Baseline@L2.1Format settings : 1 Ref FramesFormat settings, CABAC : NoFormat settings, RefFrames : 1 frameCodec ID : avc1Codec ID/Info : Advanced Video CodingDuration : 47 min 23 sBit rate : 455 kb/sMaximum bit rate : 1 398 kb/sWidth : 506 pixelsHeight : 360 pixelsDisplay aspect ratio : 1.406Frame rate mode : ConstantFrame rate : 25.000 FPSColor space : YUVChroma subsampling : 4:2:0Bit depth : 8 bitsScan type : ProgressiveBits/(Pixel*Frame) : 0.100Stream size : 154 MiB (82%)Tagged date : UTC 2015-01-01 08:37:05

AudioID : 2Format : AACFormat/Info : Advanced Audio CodecFormat profile : LCCodec ID : mp4a-40-2Duration : 47 min 24 sBit rate mode : VariableBit rate : 96.0 kb/sMaximum bit rate : 102 kb/sChannel(s) : 2 channelsChannel positions : Front: L RSampling rate : 44.1 kHzFrame rate : 43.066 FPS (1024 SPF)Compression mode : LossyStream size : 32.5 MiB (17%)Title : IsoMedia File Produced by Google, 5-11-2011Encoded date : UTC 2015-01-01 08:37:01Tagged date : UTC 2015-01-01 08:37:05


Трекер:  [ 13-Янв-2018 05:12 ]

  

Скачать .torrent

Размер .torrent файла 38 KB


Размер: 1.86 GB
Хэш (hash) релиза: 20d840299adda29177e2f8afd5e2ff0c3d11c40f
Подписка на обновления:

Еще никто не оставлял запись к записи скачать торрент Стэнд-Ап Шоу Стенд-Ап Шоу . Будь первым!

!Обратная связь