Скачать через торрент Матильда Фильм бесплатно в хорошем качестве torrent

Скачивайте на UnionPeer.org фильмы через торрент без регистрации. Новинки кино в хорошем качестве через торрент. На UnionPeer.org можно скачать через торрент фильмы 2014 и 2015 годов. Самые новые фильмы.

Скачать торрент Матильда бесплатно через .torrent фильм мультфильм сериал

Если у вас наблюдаются проблемы со скриншотами, переходом по ссылками, скачиванием торрентов - проблемы в блокировщике рекламы AdBlock. #хорошегоДня!


Статистика раздачи
Размер:  3.37 GB   |    Зарегистрирован:  1 месяц 9 дней   |    .torrent скачан:  192 раза   |   
Раздают:  2  
   
Загрузка...
 
Автор Сообщение

Galfimbul

avatar Galfimbul


Матильда

Год выхода: 2017
Жанр: история, драма
Режиссер: Алексей Учитель
В ролях: Михалина Ольшанска, Ларс Айдингер, Сергей Гармаш, Евгений Миронов, Луиза Вольфрам, Данила Козловский, Ингеборга Дапкунайте, Григорий Добрыгин, Галина Тюнина, Виталий Коваленко, Ян Гэ, Сара Штерн и др.

О фильме:
Последний русский император и балерина, утвердившая славу русского балета. Страсть, которая могла изменить русскую историю. Любовь, ставшая легендой. В жизни каждого человека случаются несколько дней, которые могут изменить её навсегда. Когда происходит самое главное. Ты оборачиваешься на голос любви. И делаешь выбор. Но если властитель империи полюбит танцовщицу, сводящую с ума своей красотой… Успенский собор, Кремль, Ходынское поле, царские дворцы, сцены Мариинского и Большого театров — там, где бьется сердце вечной России.



Страна: Россия
Студия: ТПО «РОК»
Продолжительность: 01:48:37
Перевод: Оригинал (Русский)

Файл
Кодек: х.264
Качество: WEB-DL 720p
Видео: 1280x532 (2.40:1), 23.976 fps, AVC MPEG-4 (х.264), Main@L3.1 ~3964 kbps, 0.243 bit/pixel
Звук: 48 kHz, AC3 Dolby Digital, 3/2 (L,C,R,l,r) + LFE ch, ~384 kbps
Субтитры: отсутствуют

Реклама отсутствует.
General
Unique ID : 204421019080511004994154284848365936137 (0x99CA0E62876340529FAE7FD998DB9E09)
Complete name : E:Matilda.2017_Klayd X.mkv
Format : Matroska
File size : 3.37 GiB
Duration : 1h 48mn
Overall bit rate : 4 436 Kbps
Encoded date : UTC 2017-12-03 19:27:18
Writing application : mkvmerge v8.3.0 ('Over the Horizon') 64bit
Writing library : libebml v1.3.1 + libmatroska v1.4.2

Video
ID : 1
Format : AVC
Format/Info : Advanced Video Codec
Format profile : Main@L3.1
Format settings, CABAC : No
Format settings, ReFrames : 2 frames
Codec ID : V_MPEG4/ISO/AVC
Duration : 1h 48mn
Bit rate : 3 964 Kbps
Width : 1 280 pixels
Height : 532 pixels
Display aspect ratio : 2.40:1
Frame rate : 23.976 fps
Color space : YUV
Chroma subsampling : 4:2:0
Bit depth : 8 bits
Scan type : Progressive
Bits/(Pixel*Frame) : 0.243
Stream size : 3.01 GiB (89%)
Language : English
Color primaries : BT.709-5, BT.1361, IEC 61966-2-4, SMPTE RP177
Transfer characteristics : BT.709-5, BT.1361
Matrix coefficients : BT.709-5, BT.1361, IEC 61966-2-4 709, SMPTE RP177

Audio
ID : 2
Format : AC-3
Format/Info : Audio Coding 3
Mode extension : CM (complete main)
Codec ID : A_AC3
Duration : 1h 48mn
Bit rate mode : Constant
Bit rate : 384 Kbps
Channel(s) : 6 channels
Channel positions : Front: L C R, Side: L R, LFE
Sampling rate : 48.0 KHz
Bit depth : 16 bits
Compression mode : Lossy
Stream size : 298 MiB (9%)
Language : Russian

Menu
00:00:00.000 : en:1
00:07:12.000 : en:2
00:16:56.000 : en:3
00:25:53.000 : en:4
00:33:09.000 : en:5
00:43:26.000 : en:6
00:57:30.000 : en:7
01:09:56.000 : en:8
01:21:48.000 : en:9
01:29:54.000 : en:10
01:41:09.000 : en:11
Источник http://arutor.org

Трекер:  [ 15-Янв-2018 16:40 ]

  

Скачать .torrent

Размер .torrent файла 17 KB


Размер: 3.37 GB
Хэш (hash) релиза: 35be50d4026174d857a063016c24b7a19e99a371
Подписка на обновления:

Торренты, похожие на Матильда скачать торрент

Форум Название Автор Размер S L Добавлен
Зарубежные фильмы до 2016 ·· К Матильде / По направлению к Матильде / Vers Mathilde / Towards Mathilde (Клер Дени / Claire Denis) [2005, Франция, документальный, DVD9 (Custom)] Original Fr + Sub Rus (daft-digger, alex-kin), Eng, Esp, Pt Galfimbul 60560896005.64 GB 0 0 1425236224

21:57

1-Мар-15

Трейлеры и дополнительные материалы ·· Матильда (Алексей Учитель) [2017, Драма | История | Триллер, BDRip 720p] фильм о фильме Galfimbul 17440963191.62 GB 0 0 1519032892

12:34

19-Фев-18

Российские фильмы 2016-2018 (Новинки русского кино) ·· Матильда (Алексей Учитель) [2017 г., Драма, история, триллер, BDRip 1080p] Лицензия Galfimbul 77348502067.2 GB 4 0 1517631037

07:10

3-Фев-18

Российские фильмы 2016-2018 (Новинки русского кино) ·· Матильда (Алексей Учитель) [2017 г., Драма, история, триллер, BDRip 720p] Лицензия Galfimbul 49713678574.63 GB 5 1 1517626235

05:50

3-Фев-18

Российские фильмы 2016-2018 (Новинки русского кино) ·· Матильда (Алексей Учитель) [2017 г., Драма, история, триллер, BDRemux 1080p] Лицензия Galfimbul 1848682938717.22 GB 0 0 1517599220

22:20

2-Фев-18

Российские фильмы 2016-2018 (Новинки русского кино) ·· Матильда (Алексей Учитель) [2017 г., Драма, история, триллер, Blu-ray 1080p] Лицензия Galfimbul 2958758011127.56 GB 0 0 1517587229

19:00

2-Фев-18

Российские фильмы 2016-2018 (Новинки русского кино) ·· Матильда (Алексей Учитель) [2017 г., Драма, история, триллер, BDRip 720p] Galfimbul 45958392294.28 GB 0 0 1517400657

15:10

31-Янв-18

Российские фильмы 2016-2018 (Новинки русского кино) ·· Матильда (Алексей Учитель) [2017 г., Драма, история, триллер, HDRip] | Лицензия Galfimbul 14676520961.37 GB 4 0 1517395899

13:51

31-Янв-18

Российские фильмы 2016-2018 (Новинки русского кино) ·· Матильда (Алексей Учитель) [2017, драма, история, триллер, BDRip 1080p] [RUS] [Оригинал] [Лицензия] Galfimbul 1188414513911.07 GB 2 0 1517395850

13:50

31-Янв-18

Российские фильмы до 2016 ·· Матильда (Алексей Учитель) [2017, Россия, драма, история, триллер, WEB-DL 720p] Original Rus Galfimbul 36142869683.37 GB 0 0 1515578985

13:09

10-Янв-18

Российские фильмы до 2016 ·· Матильда (Алексей Учитель) [2017, Россия, драма, история, триллер, WEB-DL 1080p] Original Rus Galfimbul 40160871923.74 GB 3 0 1514322469

00:07

27-Дек-17

Российские фильмы до 2016 ·· Матильда (Алексей Учитель) [2017, Россия, драма, история, триллер, WEB-DLRip] Galfimbul 780453888744 MB 0 0 1512491556

19:32

5-Дек-17

Российские фильмы до 2016 ·· Матильда (Алексей Учитель) [2017, драма, история, триллер, WEB-DLRip-AVC] iTunes Galfimbul 15628505891.46 GB 2 0 1512392337

15:58

4-Дек-17

Российские фильмы до 2016 ·· Матильда (Алексей Учитель) [2017, Россия, драма, история, триллер, WEB-DLRip] Galfimbul 15681187841.46 GB 0 0 1512361831

07:30

4-Дек-17

Российские фильмы 2016-2018 (Новинки русского кино) ·· Матильда (Алексей Учитель) [2017 г., Драма, История, Триллер, WEB-DLRip] iTunes Galfimbul 15684526081.46 GB 7 0 1512341422

01:50

4-Дек-17

Российские фильмы 2016-2018 (Новинки русского кино) ·· Матильда (Алексей Учитель) [2017 г., Драма, История, Триллер, WEB-DL 1080p] iTunes Galfimbul 40160871923.74 GB 8 0 1512339017

01:10

4-Дек-17

Документальные фильмы и телепередачи ·· Оболганный Государь / Ложь Матильды (Сергий Алиев) [2017, документальный, история, WEBRip 1080p] Galfimbul 49008428494.56 GB 1 1 1511577821

05:43

25-Ноя-17

Российские фильмы 2016-2018 (Новинки русского кино) ·· Матильда (Алексей Учитель) [2017 г., Драма, История, Триллер, TS 720p] Galfimbul 29951883092.79 GB 4 0 1509191544

14:52

28-Окт-17

Документальные фильмы и телепередачи ·· Другая Матильда. Видеообращение Владислава Москалева (1-3 части) (Владислав Москалев) [2017, документальный, WEBRip 1080p] Galfimbul 15132314101.41 GB 0 0 1508640160

05:42

22-Окт-17

Еще никто не оставлял запись к записи скачать торрент Матильда . Будь первым!

!Обратная связь