Скачать через торрент Двойная жизнь Серии: 1-2 из 8 Фильм бесплатно в хорошем качестве torrent

Скачивайте на UnionPeer.org фильмы через торрент без регистрации. Новинки кино в хорошем качестве через торрент. На UnionPeer.org можно скачать через торрент фильмы 2014 и 2015 годов. Самые новые фильмы.

Скачать торрент Двойная жизнь Серии: 1-2 из 8 бесплатно через .torrent фильм мультфильм сериал

Статистика раздачи
Размер:  1.4 GB   |    Зарегистрирован:  9 месяцев   |    .torrent скачан:  10 раз   |   
Раздают:  1  
   
загрузка...
 
Автор Сообщение

Galfimbul

avatar Galfimbul


Двойная жизнь<var class="postImg postImgAligned img-right" title="https://c.radikal.ru/c33/1801/70/cf9699d032b1.jpg">
</var>Год выпуска: 2017
Производство: Компания Феникс-Фильм
Жанр: Мелодрама
Продолжительность: 00:50:13
Субтитры: нетРежиссёр: Игорь МужжухинВ ролях: Татьяна Арнтгольц, Полина Сыркина, Максим Щёголев, Андрей Фролов (II), Адам Булгучев, Марина Яковлева, Анастасия Белова (II), Михаил Панюков, Александр Чекалин, Евгений Шириков, Дмитрий Гусев, Александр Бобров (IV), Александр НовиковОписание: Следователь Наталья Пахомова узнает о том, что ее восьмилетнему сыну срочно требуется дорогостоящая операция. Наталья в разводе, живет с матерью-пенсионеркой. Кредит в банке, продажа квартиры, помощь коллег, скромные личные сбережения – это всего лишь половина требуемой суммы. А состояние мальчика меж тем ухудшается. Счет идет на дни. Неожиданно Наталье поступает предложение от крупного криминального авторитета: она получит требуемую сумму, если организует побег убийцы, дело которого она ведёт...Сэмпл: http://multi-up.com/1183311Релиз: [img:13uVM9cN1J]
Warning: imagecolorsforindex(): Color index 157 out of range in /home/youpic/public_html/includes/functions.php on line 580

Warning: imagecolorsforindex(): Color index 157 out of range in /home/youpic/public_html/includes/functions.php on line 580
http://s010.youpic.su/pictures/1515970800/a6d51241b89061fd2ad6bc65d8e96404.gif[/img:13uVM9cN1J]
Качество: HDTVRip
Формат: AVI
Видео кодек: XviD
Аудио кодек: AC3
Видео: 720x400 (16:9), 25.000 fps, XviD build 73, 1800 Kbps, 0.25 bits/pixel
Аудио: 48 kHz, AC3 Dolby Digital, 2 ch, 192 Kbps

Реклама: Нет
General
Complete name : Downloads\Dvojnaja zhizn.HDTVRip.GeneralFilm\01.Dvojnaja zhizn.HDTVRip.GeneralFilm.avi
Format : AVI
Format/Info : Audio Video Interleave
File size : 720 MiB
Duration : 50mn 13s
Overall bit rate : 2 003 Kbps
Video #0
ID : 0
Format : MPEG-4 Visual
Format profile : Advanced Simple@L5
Format settings, BVOP : 1
Format settings, QPel : No
Format settings, GMC : No warppoints
Format settings, Matrix : Custom
Codec ID : XVID
Codec ID/Hint : XviD
Duration : 50mn 13s
Bit rate : 1 800 Kbps
Width : 720 pixels
Height : 400 pixels
Display aspect ratio : 16:9
Frame rate : 25.000 fps
Color space : YUV
Chroma subsampling : 4:2:0
Bit depth : 8 bits
Scan type : Progressive
Compression mode : Lossy
Bits/(Pixel*Frame) : 0.250
Stream size : 647 MiB (90%)
Writing library : XviD 73
Audio #1
ID : 1
Format : AC-3
Format/Info : Audio Coding 3
Mode extension : CM (complete main)
Format settings, Endianness : Big
Codec ID : 2000
Duration : 50mn 13s
Bit rate mode : Constant
Bit rate : 192 Kbps
Channel(s) : 2 channels
Channel positions : Front: L R
Sampling rate : 48.0 KHz
Bit depth : 16 bits
Compression mode : Lossy
Stream size : 69.0 MiB (10%)
Alignment : Aligned on interleaves
Interleave, duration : 32 ms (0.80 video frame)
(1) остановить скачивание,
(2) удалить старый торрент у себя из клиента (старые серии удалять не надо),
(3) скачать новый торрент и запустить его у себя в клиенте вместо старого, при этом указать клиенту путь в старую папку куда и должно происходить скачивание новых серий.
Ваш клиент при этом должен произвести хеширование (проверку) старой папки (если не производит сам - помогите ему сделать это), и будет докачивать только те серии которых у вас ещё нет. Старые серии при этом не удаляются, а продолжают раздаваться!
Eсли вы уже удалили старые серии, то предотвратить повторную закачку старых серий можно, отжав галочку в соответсвующих местах при запуске нового торрента. По возможности, желательно не удалять старые серии как можно дольше чтобы релизёр не столько продолжал раздавать старые серии, а смог сконцентрироваться на новых.
Предыдущие и альтернативные раздачи

Трекер:  [ 15-Янв-2018 22:48 ]

  

Скачать .torrent

Размер .torrent файла 14 KB


Размер: 1.4 GB
Хэш (hash) релиза: 2ddc96d4b5a52b36bde161672272fb77b7924edb
Подписка на обновления:

Торренты, похожие на Двойная жизнь Серии: 1-2 из 8 скачать торрент

Форум Название Автор Размер S L Добавлен
Российские сериалы ·· Двойная жизнь / Серии: 1-2 из 8 (Игорь Мужжухин) [2017, криминал, мелодрама, HDTVRip 720p] Galfimbul 27825734022.59 GB 0 0 1516080026

08:20

16-Янв-18

Еще никто не оставлял запись к записи скачать торрент Двойная жизнь Серии: 1-2 из 8 . Будь первым!

!Обратная связь