Скачать через торрент Новогодние и рождественские поздравления. Украина 2018 Фильм бесплатно в хорошем качестве torrent

Скачивайте на UnionPeer.org фильмы через торрент без регистрации. Новинки кино в хорошем качестве через торрент. На UnionPeer.org можно скачать через торрент фильмы 2014 и 2015 годов. Самые новые фильмы.

Скачать торрент Новогодние и рождественские поздравления. Украина 2018 бесплатно через .torrent фильм мультфильм сериал

Если у вас наблюдаются проблемы со скриншотами, переходом по ссылками, скачиванием торрентов - проблемы в блокировщике рекламы AdBlock. #хорошегоДня!


Статистика раздачи
Размер:  366 MB   |    Зарегистрирован:  1 месяц 9 дней   |    .torrent скачан:  0 раз   |   
Раздают:  1  
   
Загрузка...
 
Автор Сообщение

Galfimbul

avatar Galfimbul


Новогодние и рождественские поздравления. Украина 2018

Дата/Год выпуска: 2018
Страна: Украина
Жанр: новогоднее поздравление
Продолжительность: 00:12:31
Перевод: Не требуется
Русские субтитры: нет

Оригинальная аудиодорожка: украинский, русский, крымскотатарский
Телеканал: канал "Украина", Iнтер

Описание: Раздача состоит из четырех записей.
1. Новогоднее поздравление президента Украины Петра Порошенко (эфир с канала "Украина").
2. Новогоднее поздравление премьер-министра Украины Владимира Гройсмана (эфир с канала "Украина").
3. Поздравление с Рождеством Христовым митрополита Киевского и всея Украины Онуфрия (эфир с Интера).
4. Рождественское поздравление президента Украины Петра Порошенко (эфир с канала "Украина").

качество: DVB
формат: TS/M2TS
Видео: MPEG2 Video 720x576 (16:9) ~3 680kbps 25fps
Аудио: MPEG Audio 192kbps 48kHz 1ch
GeneralID : 1 (0x1)Complete name : F:\Мои раздачи\Новый год\Новоричнi привитання 2018\1.tsFormat : MPEG-TSFile size : 184 MiBDuration : 6 min 19 sOverall bit rate mode : VariableOverall bit rate : 4 075 kb/s

VideoID : 6611 (0x19D3)Menu ID : 1 (0x1)Format : MPEG VideoFormat version : Version 2Format profile : Main@MainFormat settings, BVOP : YesFormat settings, Matrix : CustomFormat settings, GOP : VariableFormat settings, picture st : FrameCodec ID : 2Duration : 6 min 18 sBit rate mode : VariableBit rate : 3 680 kb/sMaximum bit rate : 15.0 Mb/sWidth : 720 pixelsHeight : 576 pixelsDisplay aspect ratio : 16:9Frame rate : 25.000 FPSStandard : PALColor space : YUVChroma subsampling : 4:2:0Bit depth : 8 bitsScan type : InterlacedScan order : Top Field FirstCompression mode : LossyBits/(Pixel*Frame) : 0.355Time code of first frame : 00:00:00:00Time code source : Group of pictures headerStream size : 166 MiB (90%)

AudioID : 6612 (0x19D4)Menu ID : 1 (0x1)Format : MPEG AudioFormat version : Version 1Format profile : Layer 2Codec ID : 3Duration : 6 min 18 sBit rate mode : ConstantBit rate : 192 kb/sChannel(s) : 1 channelSampling rate : 48.0 kHzCompression mode : LossyDelay relative to video : 8 msStream size : 8.67 MiB (5%)Language : Ukrainian


Трекер:  [ 16-Янв-2018 00:42 ]

  

Скачать .torrent

Размер .torrent файла 15 KB


Размер: 366 MB
Хэш (hash) релиза: 41bbbdbe9b4966a6b022978d7426053055e917d3
Подписка на обновления:

Еще никто не оставлял запись к записи скачать торрент Новогодние и рождественские поздравления. Украина 2018 . Будь первым!

!Обратная связь