Скачать через торрент Оперетта капитана Крутова Серии: 1-4 из 8 Фильм бесплатно в хорошем качестве torrent

Скачивайте на UnionPeer.org фильмы через торрент без регистрации. Новинки кино в хорошем качестве через торрент. На UnionPeer.org можно скачать через торрент фильмы 2014 и 2015 годов. Самые новые фильмы.

Скачать торрент Оперетта капитана Крутова Серии: 1-4 из 8 бесплатно через .torrent фильм мультфильм сериал

Если у вас наблюдаются проблемы со скриншотами, переходом по ссылками, скачиванием торрентов - проблемы в блокировщике рекламы AdBlock. #хорошегоДня!


Статистика раздачи
Размер:  2.47 GB   |    Зарегистрирован:  1 месяц 8 дней   |    .torrent скачан:  42 раза   |   
Раздают:  1  
   
Загрузка...
 
Автор Сообщение

Galfimbul

avatar Galfimbul


Оперетта капитана Крутова

Год выпуска: 2017
Производство: Кинокомпания Рим Продакшн
Жанр: детектив, комедия
Продолжительность: ~00:48:00 серия
Субтитры: нет

Режиссёр: Вячеслав Росс

В ролях: Алексей Чадов, Юлия Снигирь, Александр Тютин, Алеса Качер, Сергей Пускепалис, Степан Куликов, Андрей Кайков, Андрей Фомин, Михаил Станкевич, Алексей Лонгин, Юлия Сулес, Сергей Борисов , Сергей Стёпин, Юрий Гумиров, Артём Гайдуков, Дмитрий Буренков, Ричард Бондарев, Александр Овчинников , Анастасия Белоусова, Ирина Чипиженко, Екатерина Кабак, Алексей Кирсанов, Александр Ефимов, Константин Тополага

Описание: Актёр Денис Калугин попадает на «стажировку» в отдел полиции, поскольку руководство МВД, курирующее сериал, в котором он снимается, считает, что Денис недостаточно реалистичен в роли героического полицейского. Его наставником становится оперативный сотрудник Дарина Филатова, втайне мечтающая о карьере актрисы.

Реклама: Нет.

Все раздачи сериала
Sample

Качество: WEBRip - 25Kuzmich
Формат: AVI
Видео кодек: XviD
Аудио кодек: AC3
Видео: 720x400 (1.80:1), 25 fps, XviD build 73 ~1650 kbps avg, 0.229 bit/pixel
Аудио: 48.0 kHz, AC3 Dolby Digital, 2/0 (L,R) ch, ~ 192 kbps
Раздача ведётся путём добавления новых серий, при каждом добавлении создаётся новый торрент. Чтобы начать докачку новой серии, пользователям необходимо сделать следующее:

- Остановить скачивание.
- Удалить старый торрент у себя из клиента (старые серии удалять не надо).
- Скачать новый торрент и запустить его у себя в клиенте вместо старого, при этом указать клиенту путь в старую папку куда и должно происходить скачивание новых серий.

Ваш клиент при этом должен произвести хеширование (проверку) старой папки (если не производит сам - помогите ему сделать это), и будет докачивать только те серии которых у вас ещё нет. Старые серии при этом не удаляются, а продолжают раздаваться!
Если вы уже удалили старые серии, то предотвратить повторную закачку старых серий можно, отжав галочку в соответствующих местах при запуске нового торрента. По возможности, желательно не удалять старые серии как можно дольше, чтобы релизер не столько продолжал раздавать старые серии, а смог сконцентрироваться на новых.
General
Complete name : D:\Operetta.kapitana.Krutova.2017.WEB-DLRip.25Kuzmich\Operetta.kapitana.Krutova.s01e01.WEB-DLRip.25Kuzmich.avi
Format : AVI
Format/Info : Audio Video Interleave
File size : 637 MiB
Duration : 48mn 7s
Overall bit rate : 1 852 Kbps
Writing application : VirtualDubMod 1.5.10.3 | www.virtualdub-fr.org || (build 2550/release)
Writing library : VirtualDubMod build 2550/release

Video
ID : 0
Format : MPEG-4 Visual
Format profile : Advanced Simple@L5
Format settings, BVOP : 2
Format settings, QPel : No
Format settings, GMC : No warppoints
Format settings, Matrix : Default (MPEG)
Codec ID : XVID
Codec ID/Hint : XviD
Duration : 48mn 7s
Bit rate : 1 650 Kbps
Width : 720 pixels
Height : 400 pixels
Display aspect ratio : 16:9
Frame rate : 25.000 fps
Color space : YUV
Chroma subsampling : 4:2:0
Bit depth : 8 bits
Scan type : Progressive
Compression mode : Lossy
Bits/(Pixel*Frame) : 0.229
Stream size : 568 MiB (89%)
Writing library : XviD 1.2.1 (UTC 2008-12-04)

Audio
ID : 1
Format : AC-3
Format/Info : Audio Coding 3
Mode extension : CM (complete main)
Format settings, Endianness : Big
Codec ID : 2000
Duration : 48mn 7s
Bit rate mode : Constant
Bit rate : 192 Kbps
Channel count : 2 channels
Channel positions : Front: L R
Sampling rate : 48.0 KHz
Bit depth : 16 bits
Compression mode : Lossy
Stream size : 66.1 MiB (10%)
Alignment : Split accross interleaves
Interleave, duration : 40 ms (1.00 video frame)
Interleave, preload duration : 500 ms


Трекер:  [ 16-Янв-2018 07:48 ]

  

Скачать .torrent

Размер .torrent файла 13 KB


Размер: 2.47 GB
Хэш (hash) релиза: 85c3d227a869b7b63dbb04d62293723d2a1f8c80
Подписка на обновления:

Еще никто не оставлял запись к записи скачать торрент Оперетта капитана Крутова Серии: 1-4 из 8 . Будь первым!

!Обратная связь