Скачать через торрент Заложница Taken Фильм бесплатно в хорошем качестве torrent

Скачивайте на UnionPeer.org фильмы через торрент без регистрации. Новинки кино в хорошем качестве через торрент. На UnionPeer.org можно скачать через торрент фильмы 2014 и 2015 годов. Самые новые фильмы.

Скачать торрент Заложница Taken бесплатно через .torrent фильм мультфильм сериал

Статистика раздачи
Размер:  2.84 GB   |    Зарегистрирован:  4 месяца 7 дней   |    .torrent скачан:  16 раз   |   
Раздают:  1  
   
загрузка...
 
Автор Сообщение

Galfimbul

avatar Galfimbul


Заложница | Taken

Год выпуска: 2018
Страна: США
Жанр: Боевик, триллер
Продолжительность: ~ 00:43:00Перевод: Профессиональный (многоголосый закадровый) | JaskierРежиссёр: Холли Дэйл, Ромео Тироне, Лекси АлександрВ ролях: Клайв Стэнден, Джеймс Хеберт, Симу Лью, Дженнифер Марсала, Романо Орцари, Джанет Рэкуэл, Дженнифер Билз, Моник Кёрнен, Гай Чарльз, Майкл Ирби и др.Описание: Это история молодого Брайана Миллса, бывшего «зеленого берета», пережившего трагедию, которая полностью изменила его. Справляясь с последствиями травмы, Миллс становится оперативником ЦРУ, и новая работа пробуждает в нем особенные и невероятно опасные таланты. Качество: WEBRip 1080p
Формат: MKV
Видео: 1920x1080 (16:9) | X264 | ~8417 kbps | 23.976 fps
Аудио 1: AC3, 48,0 КГц, 6 ch, 384 kbps - [RUS]
Аудио 2: E-AC3, 48,0 КГц, 6 ch, 640 kbps - [ENG]
Субтитры: АнглийскиеРеклама: Присутствует звуковая (два раза в начале и конце по 10 сек.)Ссылка на предыдущие и альтернативные раздачи
Переведено и озвучено: студией Jaskier
Общее
Уникальный идентификатор                 : 138793787599345335875486471376323301321 (0x686AB60ECB754A9752778B9CB2514FC9)
Полное имя                               : F:\Jaskier\Taken Season 1 (WEBRip l 1080p l Jaskier)\Taken.S02E01.WEBRip.1080p.Jaskier.Rus.Eng.mkv
Формат                                   : Matroska
Версия формата                           : Version 4 / Version 2
Размер файла                             : 2,84 Гбайт
Продолжительность                        : 43 м. 7 с.
Режим общего битрейта                    : Переменный
Общий поток                              : 9443 Кбит/сек
Дата кодирования                         : UTC 2018-01-16 09:13:49
Программа кодирования                    : mkvmerge v19.0.0 ('Brave Captain') 64-bit
Библиотека кодирования                   : libebml v1.3.5 + libmatroska v1.4.8

Видео
Идентификатор                            : 1
Формат                                   : AVC
Формат/Информация                        : Advanced Video Codec
Профиль формата                          : High@L4
Настройки формата                        : CABAC / 4 Ref Frames
Параметр CABAC формата                   : Да
Параметр RefFrames формата               : 4 кадра
Идентификатор кодека                     : V_MPEG4/ISO/AVC
Продолжительность                        : 43 м. 7 с.
Вид битрейта                             : Переменный
Битрейт                                  : 8417 Кбит/сек
Максимальный битрейт                     : 15,0 Мбит/сек
Ширина                                   : 1920 пикселей
Высота                                   : 1080 пикселей
Соотношение сторон                       : 16:9
Режим частоты кадров                     : Постоянный
Частота кадров                           : 23,976 (24000/1001) кадра/сек
Цветовое пространство                    : YUV
Субдискретизация насыщенности            : 4:2:0
Битовая глубина                          : 8 бит
Тип развёртки                            : Прогрессивная
Бит/(Пиксели*Кадры)                      : 0.169
Размер потока                            : 2,54 Гбайт (89%)
Default                                  : Да
Forced                                   : Нет
Цветовой диапазон                        : Limited
Основные цвета                           : BT.709
Характеристики трансфера                 : BT.709
Коэффициенты матрицы                     : BT.709

Аудио #1
Идентификатор                            : 2
Формат                                   : AC-3
Формат/Информация                        : Audio Coding 3
Идентификатор кодека                     : A_AC3
Продолжительность                        : 43 м. 7 с.
Вид битрейта                             : Постоянный
Битрейт                                  : 384 Кбит/сек
Каналы                                   : 6 каналов
Расположение каналов                     : Front: L C R, Side: L R, LFE
Частота                                  : 48,0 КГц
Частота кадров                           : 31,250 кадров/сек (1536 SPF)
Битовая глубина                          : 16 бит
Метод сжатия                             : С потерями
Размер потока                            : 118 Мбайт (4%)
Заголовок                                : Jaskier
Язык                                     : Russian
ServiceKind/String                       : Complete Main
Default                                  : Да
Forced                                   : Нет

Аудио #2
Идентификатор                            : 3
Формат                                   : E-AC-3
Формат/Информация                        : Enhanced Audio Coding 3
Идентификатор кодека                     : A_EAC3
Продолжительность                        : 43 м. 7 с.
Вид битрейта                             : Постоянный
Битрейт                                  : 640 Кбит/сек
Каналы                                   : 6 каналов
Расположение каналов                     : Front: L C R, Side: L R, LFE
Частота                                  : 48,0 КГц
Частота кадров                           : 187,500 кадров/сек (256 SPF)
Метод сжатия                             : С потерями
Размер потока                            : 197 Мбайт (7%)
Язык                                     : English
ServiceKind/String                       : Complete Main
Default                                  : Нет
Forced                                   : Нет

Текст
Идентификатор                            : 4
Формат                                   : UTF-8
Идентификатор кодека                     : S_TEXT/UTF8
Идентификатор кодека/Информация          : UTF-8 Plain Text
Продолжительность                        : 42 м. 22 с.
Битрейт                                  : 64 бит/сек
ElementCount                             : 774
Размер потока                            : 20,1 Кбайт (0%)
Язык                                     : English
Default                                  : Нет
Forced                                   : Нет

Меню
00:00:00.000                             : en:Scene 1
00:05:36.000                             : en:Scene 2
00:05:44.000                             : en:Scene 3
00:08:52.000                             : en:Scene 4
00:09:48.000                             : en:Scene 5
00:11:19.000                             : en:Scene 6
00:13:34.000                             : en:Scene 7
00:15:17.000                             : en:Scene 8
00:17:44.000                             : en:Scene 9
00:20:15.000                             : en:Scene 10
00:22:05.000                             : en:Scene 11
00:22:57.000                             : en:Scene 12
00:24:25.000                             : en:Scene 13
00:25:30.000                             : en:Scene 14
00:27:46.000                             : en:Scene 15
00:30:18.000                             : en:Scene 16
00:31:59.000                             : en:Scene 17
00:34:54.000                             : en:Scene 18
00:36:58.000                             : en:Scene 19
00:37:29.000                             : en:Scene 20
00:39:43.000                             : en:Scene 21
00:42:28.000                             : en:Scene 22
Когда раздача ведётся путём добавления новых серий, при каждом добавлении создётся новый торрент. Чтобы начать докачку новой серии, пользователям необходимо сделать следующее:
(1) остановить скачивание,
(2) удалить старый торрент у себя из клиента (старые серии удалять не надо),
(3) скачать новый торрент и запустить его у себя в клиенте вместо старого, при этом указать клиенту путь в старую папку, куда и должно происходить скачивание новых серий.
Ваш клиент при этом должен произвести хеширование (проверку) старой папки (если не производит сам - помогите ему сделать это), и будет докачивать только те серии, которых у вас ещё нет. Старые серии при этом не удаляются, а продолжают раздаваться!
Eсли вы уже удалили старые серии, то предотвратить повторную закачку старых серий можно, отжав галочку в соответсвующих местах при запуске нового торрента. По возможности, желательно не удалять старые серии как можно дольше, чтобы релизёр не столько продолжал раздавать старые серии, а смог сконцентрироваться на новых.


Трекер:  [ 16-Янв-2018 12:54 ]

  

Скачать .torrent

Размер .torrent файла 14 KB


Размер: 2.84 GB
Хэш (hash) релиза: 8c64e44bc262b8ddd64b60dab503affd8b02bcd3
Подписка на обновления:

Еще никто не оставлял запись к записи скачать торрент Заложница Taken . Будь первым!

!Обратная связь