Скачать через торрент Травма Trauma Фильм бесплатно в хорошем качестве torrent

Скачивайте на UnionPeer.org фильмы через торрент без регистрации. Новинки кино в хорошем качестве через торрент. На UnionPeer.org можно скачать через торрент фильмы 2014 и 2015 годов. Самые новые фильмы.

Скачать торрент Травма Trauma бесплатно через .torrent фильм мультфильм сериал

Статистика раздачи
Размер:  5.4 GB   |    Зарегистрирован:  9 месяцев   |    .torrent скачан:  49 раз   |   
Раздают:  1  
   
загрузка...
 
Автор Сообщение

Galfimbul

avatar Galfimbul


Травма / Trauma

Год выпуска: 2010
Страна: Канада
Жанр: драма
Продолжительность: 0:44:00

Перевод: Профессиональный (многоголосый закадровый) компания "Кинонота"

Режиссёр: Франсуа Жингра / Francois Gingras

В ролях: Изабель Рише
Жильбер Сикотт
Жан-Франсуа Пишетт
Джеймс Хайндмен
Ян Инглэнд
Кристиан Беджин
Паскаль Монпти
Максим Коте
Лоранс Лебёф
Madeleine Péloquin

Описание: Действие сериала разворачивается в травматологическом отделении частной клиники. Это особый мир — мир трагических происшествий, попыток убийств и неудачных самоубийств. Главная задача врачей — спасти пациенту жизнь любой ценой. И эта цена, порой, бывает очень высока — неустроенная личная жизнь, проблемы в семье, невыносимые отношения с пожилыми родителями. И как с этим справиться, когда каждый день на операционном столе тебя ждёт тот, которому жизненно необходима твоя помощь?

Сэмпл: http://multi-up.com/1183384

Качество: WEB-DLRip
Формат: AVI
Видео: MPEG4, DivX 5, 720x400 (16:9), 23.976 fps, 1 347 Kbps (0.195 bit/pixel)
Аудио: AC-3, 48.0 KHz, 2 ch, 192 Kbps, CBR - русский
Аудио 2: AC-3, 48.0 KHz, 2 ch, 192 Kbps, CBR - французский
Субтитры: нет

Реклама:
нет
Общее
Полное имя : M:\1x01 - Verites et mensonges (Истина и ложь).avi
Формат : AVI
Формат/Информация : Audio Video Interleave
Размер файла : 553 Мбайт
Продолжительность : 44 м.
Общий поток : 1745 Кбит/сек
Название фильма : Травма. Сезон 1 / Trauma. Saison 1 (2010)
Программа кодирования : VirtualDubMod 1.5.10.2 (build 2540/release)
Библиотека кодирования : VirtualDubMod build 2540/release
Авторское право : miha2154

Видео
Идентификатор : 0
Формат : MPEG-4 Visual
Профиль формата : Advanced Simple@L5
Параметр BVOP формата : 1
Параметр QPel формата : Нет
Параметр GMC формата : Без точки перехода
Параметр матрицы формата : Выборочная
Идентификатор кодека : DX50
Идентификатор кодека/Подсказка : DivX 5
Продолжительность : 44 м.
Битрейт : 1347 Кбит/сек
Ширина : 720 пикселей
Высота : 400 пикселей
Соотношение сторон : 16:9
Частота кадров : 23,976 (24000/1001) кадра/сек
Цветовое пространство : YUV
Субдискретизация насыщенности : 4:2:0
Битовая глубина : 8 бит
Тип развёртки : Прогрессивная
Метод сжатия : С потерями
Бит/(Пиксели*Кадры) : 0.195
Размер потока : 427 Мбайт (77%)
Библиотека кодирования : XviD 65

Аудио #1
Идентификатор : 1
Формат : AC-3
Формат/Информация : Audio Coding 3
Расширение режима : CM (complete main)
Параметр Endianness формата : Big
Идентификатор кодека : 2000
Продолжительность : 44 м.
Вид битрейта : Постоянный
Битрейт : 192 Кбит/сек
Каналы : 2 канала
Расположение каналов : Front: L R
Частота : 48,0 КГц
Частота кадров : 31,250 кадров/сек (1536 spf)
Метод сжатия : С потерями
Размер потока : 60,8 Мбайт (11%)
Выравнивание : Разделение по промежуткам
Продолжительность промежутка : 42 мс. (1,00 видеокадр)
Время предзагрузки промежутка : 500 мс.
Заголовок : Профессиональный (многоголосый, закадровый) Точка ТВ

Аудио #2
Идентификатор : 2
Формат : AC-3
Формат/Информация : Audio Coding 3
Расширение режима : CM (complete main)
Параметр Endianness формата : Big
Идентификатор кодека : 2000
Продолжительность : 44 м.
Вид битрейта : Постоянный
Битрейт : 192 Кбит/сек
Каналы : 2 канала
Расположение каналов : Front: L R
Частота : 48,0 КГц
Частота кадров : 31,250 кадров/сек (1536 spf)
Метод сжатия : С потерями
Размер потока : 60,8 Мбайт (11%)
Выравнивание : Разделение по промежуткам
Продолжительность промежутка : 42 мс. (1,00 видеокадр)
Время предзагрузки промежутка : 500 мс.
Заголовок : Французский
Предыдущие и альтернативные раздачи

Трекер:  [ 16-Янв-2018 16:18 ]

  

Скачать .torrent

Размер .torrent файла 28 KB


Размер: 5.4 GB
Хэш (hash) релиза: 34b158a087fa9c6c1041e8ec19dc679c82d65821
Подписка на обновления:

Торренты, похожие на Травма Trauma скачать торрент

Форум Название Автор Размер S L Добавлен
Зарубежные сериалы ·· Травма / Trauma / Сезон: 1 / Серии: 1-10 из 10 (Франсуа Жингра / Francois Gingras) [2010, Канада, драма, WEB-DL 720p] MVO (компания "Кинонота") + Original Galfimbul 1094597965110.19 GB 0 0 1517136909

13:55

28-Янв-18

Зарубежные сериалы ·· Травма / Trauma / Сезон: 4 / Серии: 1-10 из 10 (Франсуа Жингра / Francois Gingras) [2013, Канада, драма, WEB-DL 720p] MVO (компания "Кинонота") + Original Galfimbul 105843825689.86 GB 0 0 1523123297

20:48

7-Апр-18

Зарубежные сериалы ·· Травма / Trauma / Сезон: 4 / Серии: 1-10 из 10 (Франсуа Жингра / Francois Gingras) [2013, Канада, драма, WEB-DLRip] MVO (компания "Кинонота") + Original Galfimbul 57925591045.39 GB 0 0 1523119688

19:48

7-Апр-18

Зарубежные сериалы ·· Травма / Trauma / Сезон: 2 / Серии: 1-10 из 10 (Франсуа Жингра / Francois Gingras) [2011, Канада, драма, WEB-DL 720p] MVO (компания "Кинонота") + Original Galfimbul 1098359861210.23 GB 0 0 1517579723

16:55

2-Фев-18

Зарубежные сериалы ·· Травма / Trauma / Сезон: 2 / Серии: 1-10 из 10 (Франсуа Жингра / Francois Gingras) [2011, Канада, драма, WEB-DLRip] MVO (компания "Кинонота") + Original Galfimbul 57929830405.4 GB 0 0 1517577704

16:21

2-Фев-18

Еще никто не оставлял запись к записи скачать торрент Травма Trauma . Будь первым!

!Обратная связь