Скачать через торрент Робоцып Robot Chicken Фильм бесплатно в хорошем качестве torrent

Скачивайте на UnionPeer.org фильмы через торрент без регистрации. Новинки кино в хорошем качестве через торрент. На UnionPeer.org можно скачать через торрент фильмы 2014 и 2015 годов. Самые новые фильмы.

Скачать торрент Робоцып Robot Chicken бесплатно через .torrent фильм мультфильм сериал

Статистика раздачи
Размер:  3.04 GB   |    Зарегистрирован:  1 год 10 месяцев   |    .torrent скачан:  58 раз   |   
Раздают:  1  
   
загрузка...
 
Автор Сообщение

Galfimbul

avatar Galfimbul


Робоцып / Robot Chicken
Страна: США
Студия: Sony Pictures, Williams Street
Жанр: Сатира, Пародия, Чёрный Юмор
Продолжительность серии: ~ 11 мин
Год выпуска: 2017
Перевод: Любительский (одноголосый закадровый) { Витя Зевлев }

Режиссёр: Сет Грин, Мэтью Синрайк / Seth Green, Matthew Senreich
Роли озвучивали: Seth Green, Matthew Senreich, Jordan Allen-Dutton, Candace Bailey, Abraham Benrubi, Alex Borstein...Описание: "Робоцып" - калейдоскоп коротких скетчей, полных чёрного юмора и сатиры. Практически каждая сценка пародирует кино, телешоу, компьютерные игры, героев мультфильмов и комиксов, актёров, политиков, певцов и других знаменитостей, а также продукты питания, рекламные ролики или прочие проявления массовой культуры. Все серии объединены общим сюжетом, по которому некий Робоцып оживил безумного учёного, привязал его к креслу и заставил смотреть несколько телевизоров сразу. Причём, смены скетчей выполнены в виде переключения каналов.Релиз группы: Доп. информация:
Для Робоцыпа 29.970fps это норма. Все стоп-моушен сцены сняты в 15fps, а все эффекты (огонь, кровь) - в 30fps.Качество: WEBRip 1080p (AMZN)
Формат: MKV
Видео: MPEG-4 AVC, 1920x1080 (16:9), 29.970 fps, ~ 6000 kbps
Аудио 1: Русский, AC3 Dolby Digital, 6 ch, 640 kbps, 48 kHz
Аудио 2: Английский, AC3 Dolby Digital, 6 ch, 640 kbps, 48 kHz
Субтитры: Английские | SubRip

Сэмпл
Season 5 BDRip 1080p | 720p
Season 6 BDRip 1080p | 720p
Season 7 WEB-DL 1080p | 720p
Season 8 WEB-DL 1080p
00 The Robot Chicken Walking Dead Special: Look Who's Walking
01 Freshly Baked: The Robot Chicken Santa Claus Pot Cookie Freakout Special: Special Edition
02 Hey I Found Another Sock
03 Scoot to the Gute
Общее
Уникальный идентификатор : 243507567811150700706245723554454471569 (0xB731DA05F25D8FA295FC8FC6C57C8391)
Полное имя : C:\Раздачи\Robot.Chicken.S09.2017-2018.H264.WEB-DL.1080p-SergeZuich\02 Hey I Found Another Sock.mkv
Формат : Matroska
Версия формата : Version 4 / Version 2
Размер файла : 579 Мбайт
Продолжительность : 11 м. 12 с.
Режим общего битрейта : Переменный
Общий поток : 7228 Кбит/сек
Дата кодирования : UTC 2017-12-28 18:39:29
Программа кодирования : mkvmerge v8.3.0 ('Over the Horizon') 64bit
Библиотека кодирования : libebml v1.3.1 + libmatroska v1.4.2

Видео
Идентификатор : 1
Формат : AVC
Формат/Информация : Advanced Video Codec
Профиль формата : High@L4
Настройки формата : CABAC / 4 Ref Frames
Параметр CABAC формата : Да
Параметр RefFrames формата : 4 кадра
Идентификатор кодека : V_MPEG4/ISO/AVC
Продолжительность : 11 м. 12 с.
Вид битрейта : Переменный
Битрейт : 5945 Кбит/сек
Максимальный битрейт : 15,0 Мбит/сек
Ширина : 1920 пикселей
Высота : 1080 пикселей
Соотношение сторон : 16:9
Режим частоты кадров : Постоянный
Частота кадров : 29,970 (30000/1001) кадров/сек
Цветовое пространство : YUV
Субдискретизация насыщенности : 4:2:0
Битовая глубина : 8 бит
Тип развёртки : Прогрессивная
Бит/(Пиксели*Кадры) : 0.096
Размер потока : 476 Мбайт (82%)
Заголовок : Hey I Found Another Sock
Default : Да
Forced : Нет
Цветовой диапазон : Limited
Основные цвета : BT.709
Характеристики трансфера : BT.709
Коэффициенты матрицы : BT.709

Аудио #1
Идентификатор : 2
Формат : AC-3
Формат/Информация : Audio Coding 3
Идентификатор кодека : A_AC3
Продолжительность : 11 м. 12 с.
Вид битрейта : Постоянный
Битрейт : 640 Кбит/сек
Каналы : 6 каналов
Расположение каналов : Front: L C R, Side: L R, LFE
Частота : 48,0 КГц
Частота кадров : 31,250 кадров/сек (1536 SPF)
Битовая глубина : 16 бит
Метод сжатия : С потерями
Размер потока : 51,3 Мбайт (9%)
Заголовок : VO [Zevlev] - AC3 Dolby Digital, 6 ch, 640 kbps, 48 kHz
Язык : Russian
ServiceKind/String : Complete Main
Default : Да
Forced : Нет

Аудио #2
Идентификатор : 3
Формат : E-AC-3
Формат/Информация : Enhanced Audio Coding 3
Идентификатор кодека : A_EAC3
Продолжительность : 11 м. 12 с.
Вид битрейта : Постоянный
Битрейт : 640 Кбит/сек
Каналы : 6 каналов
Расположение каналов : Front: L C R, Side: L R, LFE
Частота : 48,0 КГц
Частота кадров : 187,500 кадров/сек (256 SPF)
Метод сжатия : С потерями
Размер потока : 51,3 Мбайт (9%)
Заголовок : Original - AC3 Dolby Digital, 6 ch, 640 kbps, 48 kHz
Язык : English
ServiceKind/String : Complete Main
Default : Нет
Forced : Нет

Текст
Идентификатор : 4
Формат : UTF-8
Идентификатор кодека : S_TEXT/UTF8
Идентификатор кодека/Информация : UTF-8 Plain Text
Продолжительность : 10 м. 54 с.
Битрейт : 87 бит/сек
ElementCount : 262
Размер потока : 6,98 Кбайт (0%)
Заголовок : Hey I Found Another Sock
Язык : English
Default : Нет
Forced : Нет


Трекер:  [ 18-Янв-2018 19:24 ]

  

Скачать .torrent

Размер .torrent файла 16 KB


Размер: 3.04 GB
Хэш (hash) релиза: 29fa56a1a78ec13132019a2112fb9b10cf92ad28
Подписка на обновления:

Еще никто не оставлял запись к записи скачать торрент Робоцып Robot Chicken . Будь первым!

!Обратная связь