Скачать через торрент КьюАй. Весьма интересно QI - Quite Interesting Фильм бесплатно в хорошем качестве torrent

Скачивайте на UnionPeer.org фильмы через торрент без регистрации. Новинки кино в хорошем качестве через торрент. На UnionPeer.org можно скачать через торрент фильмы 2014 и 2015 годов. Самые новые фильмы.

Скачать торрент КьюАй. Весьма интересно QI - Quite Interesting бесплатно через .torrent фильм мультфильм сериал

Статистика раздачи
Размер:  11.62 GB   |    Зарегистрирован:  9 месяцев   |    .torrent скачан:  17 раз   |   
Раздают:  1  
   
загрузка...
 
Автор Сообщение

Galfimbul

avatar Galfimbul


КьюАй. Весьма интересно / QI - Quite Interesting (Сезон 14 / Series N)

Дата/Год выпуска: 2016-2017
Страна: Великобритания
Жанр: комедийное шоу, викторина
Продолжительность: 45 минут серия
Перевод: Субтитры
Русские субтитры: есть

Формат субтитров: softsub (SRT)
Оригинальная аудиодорожка: английский
Автор идеи: Джон Ллойд

Телеканал: BBC Two HD
Описание: QI - это познавательно-юмористическая передача, где в каждом выпуске гости (как правило, комедианты, актёры или просто известные личности) в количестве четырёх человек пытаются ответить на вопросы, заданные ведущей (Сэнди Тосквиг). Как правило, каждый выпуск имеет свою тему. В этом сезоне темы начинаются на букву "Н" (английское "N").

Доп. информация: авторы субтитров dvoepopolis, shadowpuppet, kopie и ещё 25 человек

качество: HDTVRip
формат: MKV
Видео: AVC, 1280 x 720 (16:9), ~2300 Kbps, 50.000 fps
Аудио: AAC, 48 kHz, 2 ch, 124 kbps
https://en.wikipedia.org/wiki/List_of_QI_episodes#Series_N_(2016%E2%80%9317)
осторожно - содержит имя победителя выпуска
GeneralUnique ID : 224091886888786631670969844758408741959 (0xA896870BE67E512C977309B7BE524447)Complete name : \QI XL S14 N\QI S14E01XL.mkvFormat : MatroskaFormat version : Version 4 / Version 2File size : 776 MiBDuration : 44 min 22 sOverall bit rate : 2 447 kb/sEncoded date : UTC 2016-10-23 22:49:15Writing application : mkvmerge v9.5.0 ('Quiet Fire') 64bitWriting library : libebml v1.3.4 + libmatroska v1.4.5

VideoID : 1Format : AVCFormat/Info : Advanced Video CodecFormat profile : High@L4.1Format settings, CABAC : YesFormat settings, ReFrames : 5 framesCodec ID : V_MPEG4/ISO/AVCDuration : 44 min 22 sBit rate : 2 319 kb/sWidth : 1 280 pixelsHeight : 720 pixelsDisplay aspect ratio : 16:9Frame rate mode : ConstantFrame rate : 50.000 FPSColor space : YUVChroma subsampling : 4:2:0Bit depth : 8 bitsScan type : ProgressiveBits/(Pixel*Frame) : 0.050Stream size : 736 MiB (95%)Writing library : x264 core 148 r2721 72d53abEncoding settings : cabac=1 / ref=5 / deblock=1:0:0 / analyse=0x3:0x113 / me=umh / subme=8 / psy=1 / psy_rd=1.00:0.00 / mixed_ref=1 / me_range=16 / chroma_me=1 / trellis=2 / 8x8dct=1 / cqm=0 / deadzone=21,11 / fast_pskip=1 / chroma_qp_offset=-2 / threads=18 / lookahead_threads=3 / sliced_threads=0 / nr=0 / decimate=1 / interlaced=0 / bluray_compat=0 / constrained_intra=0 / bframes=3 / b_pyramid=2 / b_adapt=1 / b_bias=0 / direct=3 / weightb=1 / open_gop=0 / weightp=2 / keyint=500 / keyint_min=50 / scenecut=40 / intra_refresh=0 / rc_lookahead=50 / rc=crf / mbtree=1 / crf=20.0 / qcomp=0.60 / qpmin=0 / qpmax=69 / qpstep=4 / vbv_maxrate=62500 / vbv_bufsize=78125 / crf_max=0.0 / nal_hrd=none / filler=0 / ip_ratio=1.40 / aq=1:1.00Default : YesForced : NoColor range : LimitedMatrix coefficients : BT.709

AudioID : 2Format : AACFormat/Info : Advanced Audio CodecFormat profile : LCCodec ID : A_AACDuration : 44 min 22 sBit rate : 124 kb/sChannel(s) : 2 channelsChannel positions : Front: L RSampling rate : 48.0 kHzFrame rate : 46.875 FPS (1024 spf)Compression mode : LossyStream size : 39.3 MiB (5%)Language : EnglishDefault : YesForced : No

Menu00:00:00.000 : :Chapter 0100:08:10.080 : :Chapter 0200:15:33.040 : :Chapter 0300:24:00.880 : :Chapter 0400:32:35.600 : :Chapter 0500:41:00.280 : :Chapter 0600:48:42.920 : :Chapter 0700:56:26.240 : :Chapter 0801:04:14.160 : :Chapter 0901:13:02.200 : :Chapter 1001:20:22.720 : :Chapter 1101:24:48.280 : :Chapter 12


Трекер:  [ 20-Янв-2018 18:42 ]

  

Скачать .torrent

Размер .torrent файла 31 KB


Размер: 11.62 GB
Хэш (hash) релиза: 154016d5b3981fba5d1e20461b5b6fd045e4e922
Подписка на обновления:

Торренты, похожие на КьюАй. Весьма интересно QI - Quite Interesting скачать торрент

Форум Название Автор Размер S L Добавлен
Развлекательные телепередачи и шоу ·· КьюАй. Весьма интересно / QI - Quite Interesting Сезон 2, Серии 1 из 12) [2004, Телевикторина, DVDRip] VO Galfimbul 163702715156 MB 0 0 1465256262

02:37

7-Июн-16

Развлекательные телепередачи и шоу ·· КьюАй. Весьма интересно / QI - Quite Interesting (Сезоны 8-12 / Series H-L) [2010-2014, комедийная телевикторина, HDTVRip-AVC 720p / PDTVRip-AVC] Galfimbul 6292863626158.61 GB 0 0 1463840346

17:19

21-Май-16

Развлекательные телепередачи и шоу ·· КьюАй. Весьма интересно / QI - Quite Interesting (Сезон 13 / Series M) [2015-2016, комедийная телевикторина, HDTVRip-AVC 720p] Galfimbul 1512633924114.09 GB 0 0 1463839618

17:06

21-Май-16

Развлекательные телепередачи и шоу ·· КьюАй. Весьма интересно / QI - Quite Interesting (Сезон 13, серии 1-4 / Series M) [2015, комедийная телевикторина, HDTVRip-AVC 720p] Galfimbul 33339645073.1 GB 0 0 1447238010

13:33

11-Ноя-15

Развлекательные телепередачи и шоу ·· КьюАй. Весьма интересно / QI - Quite Interesting (Сезоны 8-12 / Series H-L) [2010-2014, комедийная телевикторина, HDTVRip-AVC 720p / TVRip-AVC] Galfimbul 6074158474156.57 GB 0 0 1447164890

17:14

10-Ноя-15

Развлекательные телепередачи и шоу ·· КьюАй. Весьма интересно / QI - Quite Interesting (Сезоны 1-7 / Series A-G) [2003-2009, комедийная телевикторина, DVDRip-AVC / TVRip-AVC] Galfimbul 1661484067915.47 GB 0 0 1447039564

06:26

9-Ноя-15

Развлекательные телепередачи и шоу ·· КьюАй. Весьма интересно. Сезон 15 / QI - Quite Interesting. Series O (Серии 01-08 из 16) [2017-2018, комедийное шоу, викторина, HDRip] Galfimbul 63900326705.95 GB 0 0 1518803253

20:47

16-Фев-18

Еще никто не оставлял запись к записи скачать торрент КьюАй. Весьма интересно QI - Quite Interesting . Будь первым!

!Обратная связь