Скачать через торрент ПОСТ-музыкальные новости Фильм бесплатно в хорошем качестве torrent

Скачивайте на UnionPeer.org фильмы через торрент без регистрации. Новинки кино в хорошем качестве через торрент. На UnionPeer.org можно скачать через торрент фильмы 2014 и 2015 годов. Самые новые фильмы.

Скачать торрент ПОСТ-музыкальные новости бесплатно через .torrent фильм мультфильм сериал

Если у вас наблюдаются проблемы со скриншотами, переходом по ссылками, скачиванием торрентов - проблемы в блокировщике рекламы AdBlock. #хорошегоДня!


Статистика раздачи
Размер:  3.3 GB   |    Зарегистрирован:  1 месяц 4 дня   |    .torrent скачан:  12 раз   |   
Раздают:  1  
   
Загрузка...
 
Автор Сообщение

Galfimbul

avatar Galfimbul


ПОСТ-музыкальные новости

Год выпуска: 1996
Страна: Россия
Жанр: информационно-музыкальная программа
Продолжительность: 4 x 14-15 мин.

Телеканал: ТВ-6 Москва

Ведущие: Таня Семкив, Роман Скворцов

Описание: Информационно-музыкальная программа.

Доп. информация: Огромная благодарность Nekontroliruemij_devil за исходники!

Качество: TVRip
Формат: MPG
Видео кодек: MPEG2
Аудио кодек: AC3
Видео: MPEG2 Video 720x576 (4:3) 25fps 7938-7966kbps
Аудио: Dolby AC3 48000Hz stereo 192kbps
GeneralComplete name : ПОСТ-музыкальные новости - Алёна Свиридова, Григорий Лепс (1996) [ТВ-6 Москва].mpgFormat : MPEG-PSFile size : 875 MiBDuration : 14 min 41 sOverall bit rate mode : VariableOverall bit rate : 8 323 kb/sWriting library : (dvd5: Oct 27 2015)

VideoID : 224 (0xE0)Format : MPEG VideoFormat version : Version 2Format profile : Main@MainFormat settings, BVOP : NoFormat settings, Matrix : DefaultFormat settings, GOP : VariableFormat settings, picture struc : FrameDuration : 14 min 41 sBit rate mode : VariableBit rate : 7 966 kb/sMaximum bit rate : 8 200 kb/sWidth : 720 pixelsHeight : 576 pixelsDisplay aspect ratio : 4:3Frame rate : 25.000 FPSStandard : PALColor space : YUVChroma subsampling : 4:2:0Bit depth : 8 bitsScan type : InterlacedScan order : Top Field FirstCompression mode : LossyBits/(Pixel*Frame) : 0.768Time code of first frame : 00:00:00:00Time code source : Group of pictures headerGOP, Open/Closed : ClosedStream size : 837 MiB (96%)Writing library : (dvd5: Oct 27 2015)

AudioID : 189 (0xBD)-128 (0x80)Format : AC-3Format/Info : Audio Coding 3Format settings, Endianness : BigMuxing mode : DVD-VideoDuration : 14 min 41 sBit rate mode : ConstantBit rate : 192 kb/sChannel(s) : 2 channelsChannel positions : Front: L RSampling rate : 48.0 kHzFrame rate : 31.250 FPS (1536 SPF)Bit depth : 16 bitsCompression mode : LossyStream size : 20.2 MiB (2%)Service kind : Complete Main


Трекер:  [ 20-Янв-2018 19:12 ]

  

Скачать .torrent

Размер .torrent файла 17 KB


Размер: 3.3 GB
Хэш (hash) релиза: 45d31393cd7070716eeed217f3c2cf5687b4a4cf
Подписка на обновления:

Еще никто не оставлял запись к записи скачать торрент ПОСТ-музыкальные новости . Будь первым!

!Обратная связь