Скачать через торрент Девять жизней Рождества The Nine Lives of Christmas Фильм бесплатно в хорошем качестве torrent

Скачивайте на UnionPeer.org фильмы через торрент без регистрации. Новинки кино в хорошем качестве через торрент. На UnionPeer.org можно скачать через торрент фильмы 2014 и 2015 годов. Самые новые фильмы.

Скачать торрент Девять жизней Рождества The Nine Lives of Christmas бесплатно через .torrent фильм мультфильм сериал

Статистика раздачи
Размер:  1.35 GB   |    Зарегистрирован:  6 лет 1 месяц   |    .torrent скачан:  33 раза   |   
Раздают:  1  
 

Скачать Девять жизней Рождества / The Nine Lives of Christmas (Марк Жан / Mark Jean) [2014, США, мелодрама, комедия, SATRip] DVO (т/к "Астана") через torrent

 
 
Автор Сообщение

Galfimbul

avatar Galfimbul


Девять жизней Рождества
The Nine Lives of Christmas
Страна: США
Жанр: мелодрама, комедия
Продолжительность: 01:25:59
Год выпуска: 2014
Перевод: Профессиональный (двухголосый закадровый)
Субтитры: отсутствуютРежиссёр: Марк Жан: Mark Jean
В ролях: Брэндон Рут, Кимберли Састад, Стефани Беннетт, Челси Хоббс, Шон Тайсон, Далиас Блейк, Грегори Харрисон, Тоня Ли Альберс, Элисон Арая, Дженнифер ЧжонО фильме: После того, как бездомный кот поселяется в доме Закари, начинаются рождественские приключения двух молодых людей, которые в силу обстоятельств думают, что не готовы влюбиться…Проф. перевод к данному фильму появляется в сети впервые.

Семпл: https://www.sendspace.com/file/9w6lqqКачество: SATRip [ASTANA TV] (эфир 14.01.2018)
Формат: AVI
Видео: XviD 67, 720x400 (16:9), 25 fps, ~2048 kbps, 0.284 bit/pixel
Аудио: [RUS] 48 kHz, AC3, 1 ch, 192 kbps
ОбщееПолное имя : F:\Девять жизней Рождества (2014) [ASTANA TV].aviФормат : AVIФормат/Информация : Audio Video InterleaveРазмер файла : 1,35 ГбайтПродолжительность : 1 ч. 25 м.Общий поток : 2250 Кбит/секПрограмма кодирования : VirtualDubMod 1.5.10.2 (build 2540/release)Библиотека кодирования : VirtualDubMod build 2540/release

ВидеоИдентификатор : 0Формат : MPEG-4 VisualПрофиль формата : Advanced Simple@L5Параметр BVOP формата : 2Параметр QPel формата : НетПараметр GMC формата : Без точки переходаПараметр матрицы формата : Default (H.263)Идентификатор кодека : XVIDИдентификатор кодека/Подсказка : XviDПродолжительность : 1 ч. 25 м.Битрейт : 2048 Кбит/секШирина : 720 пикселейВысота : 400 пикселейСоотношение сторон : 16:9Частота кадров : 25,000 кадров/секЦветовое пространство : YUVСубдискретизация насыщенности : 4:2:0Битовая глубина : 8 битТип развёртки : ПрогрессивнаяМетод сжатия : С потерямиБит/(Пиксели*Кадры) : 0.284Размер потока : 1,23 Гбайт (91%)Библиотека кодирования : XviD 67

АудиоИдентификатор : 1Формат : AC-3Формат/Информация : Audio Coding 3Параметр Endianness формата : BigИдентификатор кодека : 2000Продолжительность : 1 ч. 25 м.Вид битрейта : ПостоянныйБитрейт : 192 Кбит/секКаналы : 1 каналРасположение каналов : Front: CЧастота : 48,0 КГцЧастота кадров : 31,250 кадров/сек (1536 SPF)Битовая глубина : 16 битМетод сжатия : С потерямиРазмер потока : 118 Мбайт (9%)Выравнивание : Разделение по промежуткамПродолжительность промежутка : 40 мс. (1,00 видеокадр)Время предзагрузки промежутка : 500 мс.ServiceKind/String : Complete Main


Внимание! AdBlock блокирует показ скриншотов, все вопросы к разработчикам )))
Трекер:  [ 21-Янв-2018 12:30 ]

  

Скачать .torrent

Размер .torrent файла 14 KB


Размер: 1.35 GB
Хэш (hash) релиза: 1a748e9181243e13e9c5409e7e27bb9e6e0230dc
Подписка на обновления:

Торренты, похожие на Девять жизней Рождества The Nine Lives of Christmas скачать торрент

Форум Название Автор Размер S L Добавлен
Зарубежные фильмы до 2016 ·· Девять жизней Рождества / The Nine Lives Of Christmas (Марк Джин / Mark Jean) [2014, США, Комедия, мелодрама, HDTVrip 720p] Galfimbul 26283257752.45 GB 0 0 1420464327

16:25

5-Янв-15

Зарубежные фильмы до 2016 ·· Девять жизней Рождества / The Nine Lives Of Christmas (Марк Джин / Mark Jean) [2014, США, Комедия, мелодрама, HDTVRip-AVC] Sub Rus + Original Eng Galfimbul 24673903592.3 GB 0 0 1420205390

16:29

2-Янв-15

Еще никто не оставлял запись к записи скачать торрент Девять жизней Рождества The Nine Lives of Christmas . Будь первым!

!Обратная связь