Скачать через торрент Е-621 Banlieue 13 Фильм бесплатно в хорошем качестве torrent

Скачивайте на UnionPeer.org фильмы через торрент без регистрации. Новинки кино в хорошем качестве через торрент. На UnionPeer.org можно скачать через торрент фильмы 2014 и 2015 годов. Самые новые фильмы.

Скачать торрент Е-621 Banlieue 13 бесплатно через .torrent фильм мультфильм сериал

Статистика раздачи
Размер:  1.36 GB   |    Зарегистрирован:  6 месяцев   |    .torrent скачан:  17 раз   |   
Раздают:  1  
   
загрузка...
 
Автор Сообщение

Galfimbul

avatar Galfimbul


Е-621 / Banlieue 13

<var class="postImg postImgAligned img-right" title="https://a.radikal.ru/a34/1801/74/25fe0aaf723a.jpg">
</var>Год выпуска: 2018
Страна: Франция
Жанр: комедия, пародия, боевик, криминал, юмористический перевод
Продолжительность: 01:24:29
Перевод: любительский одноголосый (смешной перевод ser6630)
Режиссер: Пьер Морел, ser6630
В ролях: Сирил Раффаэлли, Дэвид Белль, Тони Д`Амарио, Биби Насери, Дани Вериссимо, Франсуа Шатто, Николас Войрион, Патрик Оливер, Самир Гесми, Жером Гаднер

Описание:
Смешной перевод фильма "13-й район".
Шеф-повар Рабульон — гениальный бизнесмен. Он живет своими ресторанами. Готовить еду для людей — это его жизнь! Однако продукты да и деньги на продукты он добывает не совсем законным путем. Так или иначе, он стал монополистом среди рестораторов своего района и главный секрет его успеха — это глютамат натрия (Е-621). Благодаря этой добавке, его блюда обожает весь район.
В один прекрасный день его сотрудники нападают на грузовик, думая, что он везет продукты на ярмарку и случайно похищают ракету.
Тем временем, правительство Франции отправляет капитана налоговой инспекции Сирила вернуть эту ракету. Во время операции Сирил знакомится с парнишкой Девидом, который так же точит зуб на Рабульона.
Шеф Рабульон, в целом, не против вернуть ракету, но самое главное — успеть ввести код отмены самоуничтожения.

Семпл

Файл
Кодек: XviD
Качество: HDRip
Видео: 720x304 (2.37:1), 25 fps, XviD build 64 ~2096 kbps avg, 0.38 bit/pixel
Звук: 48 kHz, MPEG Layer 3, 2 ch, ~192.00 kbps avg
GeneralComplete name : E:\___фильмы\E-621.2018.HDRip.aviFormat : AVIFormat/Info : Audio Video InterleaveFile size : 1.36 GiBDuration : 1h 24mnOverall bit rate : 2 298 Kbps

VideoID : 0Format : MPEG-4 VisualFormat profile : AdvancedSimple@L5Format settings, BVOP : YesFormat settings, QPel : NoFormat settings, GMC : No warppointsFormat settings, Matrix : Default (MPEG)Codec ID : XVIDCodec ID/Hint : XviDDuration : 1h 24mnBit rate : 2 097 KbpsWidth : 720 pixelsHeight : 304 pixelsDisplay aspect ratio : 2.35:1Frame rate : 25.000 fpsResolution : 24 bitsColorimetry : 4:2:0Scan type : ProgressiveBits/(Pixel*Frame) : 0.383Stream size : 1.24 GiB (91%)Writing library : XviD 64

AudioID : 1Format : MPEG AudioFormat version : Version 1Format profile : Layer 3Codec ID : 55Codec ID/Hint : MP3Duration : 1h 24mnBit rate mode : ConstantBit rate : 192 KbpsChannel(s) : 2 channelsSampling rate : 48.0 KHzResolution : 16 bitsStream size : 116 MiB (8%)Alignment : Split accross interleavesInterleave, duration : 40 ms (1.00 video frame)Writing library : LAMELAME_MAJOR


Трекер:  [ 21-Янв-2018 14:42 ]

  

Скачать .torrent

Размер .torrent файла 14 KB


Размер: 1.36 GB
Хэш (hash) релиза: e199453c717a88447d69b6994c4ab14779048b37
Подписка на обновления:

Торренты, похожие на Е-621 Banlieue 13 скачать торрент

Форум Название Автор Размер S L Добавлен
Развлекательные телепередачи и шоу ·· Е-621 [Глютамат натрия] / Banlieue 13 (Пьер Морель) [2004, боевик, триллер, криминал,комедия, BDRip] Galfimbul 15087167151.41 GB 0 0 1516535331

14:48

21-Янв-18

Еще никто не оставлял запись к записи скачать торрент Е-621 Banlieue 13 . Будь первым!

!Обратная связь