Скачать через торрент Международная пилорама с Тиграном Кеосаяном 2018.01.21 Фильм бесплатно в хорошем качестве torrent

Скачивайте на UnionPeer.org фильмы через торрент без регистрации. Новинки кино в хорошем качестве через торрент. На UnionPeer.org можно скачать через торрент фильмы 2014 и 2015 годов. Самые новые фильмы.

Скачать торрент Международная пилорама с Тиграном Кеосаяном 2018.01.21 бесплатно через .torrent фильм мультфильм сериал

Статистика раздачи
Размер:  703 MB   |    Зарегистрирован:  6 месяцев   |    .torrent скачан:  44 раза   |   
Раздают:  1  
   
загрузка...
 
Автор Сообщение

Galfimbul

avatar Galfimbul


Международная пилорама с Тиграном Кеосаяном 2018.01.21

<var class="postImg postImgAligned img-right" title="https://b.radikal.ru/b06/1801/ab/00f293834073.jpg">
</var>Дата/Год выпуска: 21.01.2018
Страна: Россия
Жанр: Юмористическое политическое шоу
Продолжительность: 00:36:15
Перевод: Не требуется
Русские субтитры: нет

Оригинальная аудиодорожка: русский
Телеканал: НТВ
Описание:
«Международная пилорама» сэкономит время телезрителей. Следить за политической обстановкой в мире, колебаниями курсов валют и новостями шоу-бизнеса теперь вовсе не обязательно. Каждую субботу Тигран Эдмондович в свойственной ему язвительной манере будет разбирать события мировой политики. Под огонь его едких комментариев попадут многие — от журналистов до политических лидеров.
Сэмпл: http://multi-up.com/1184260

качество: DVB
формат: MKV
Видео: AVC, 720x576, (16:9), 25 fps, 2 511 kb/s
Аудио: RUS, MP2, 48 kHz, 2 ch, 192 kbps
Сравнение скриншотов:
GeneralUnique ID : 105787701069230164853765083535028460301 (0x4F95F85A070E6373BF2F7C73B5931B0D)Complete name : C:\Международная пилорама с Тиграном Кеосаяном 2018.01.21.mkvFormat : MatroskaFormat version : Version 4 / Version 2File size : 703 MiBDuration : 36 min 15 sOverall bit rate : 2 710 kb/sEncoded date : UTC 2018-01-23 08:37:29Writing application : mkvmerge v20.0.0 ('I Am The Sun') 32-bitWriting library : libebml v1.3.5 + libmatroska v1.4.8

VideoID : 1Format : AVCFormat/Info : Advanced Video CodecFormat profile : Main@L3Format settings : CABAC / 3 Ref FramesFormat settings, CABAC : YesFormat settings, RefFrames : 3 framesCodec ID : V_MPEG4/ISO/AVCDuration : 36 min 15 sBit rate : 2 511 kb/sWidth : 720 pixelsHeight : 576 pixelsDisplay aspect ratio : 16:9Frame rate mode : VariableFrame rate : 44.687 FPSOriginal frame rate : 25.000 FPSStandard : ComponentColor space : YUVChroma subsampling : 4:2:0Bit depth : 8 bitsScan type : InterlacedScan type, store method : Separated fieldsScan order : Top Field FirstBits/(Pixel*Frame) : 0.136Stream size : 651 MiB (93%)Default : YesForced : NoColor range : LimitedColor primaries : BT.601 PALTransfer characteristics : BT.470 System B, BT.470 System GMatrix coefficients : BT.470 System B, BT.470 System G

AudioID : 2Format : MPEG AudioFormat version : Version 1Format profile : Layer 2Codec ID : A_MPEG/L2Codec ID/Hint : MP2Duration : 36 min 15 sBit rate mode : ConstantBit rate : 192 kb/sChannel(s) : 2 channelsSampling rate : 48.0 kHzFrame rate : 41.667 FPS (1152 SPF)Compression mode : LossyStream size : 49.8 MiB (7%)Language : RussianDefault : YesForced : No


Трекер:  [ 23-Янв-2018 12:12 ]

  

Скачать .torrent

Размер .torrent файла 14 KB


Размер: 703 MB
Хэш (hash) релиза: ea8e726600745e999877bed0ae1ae4740caed748
Подписка на обновления:

Еще никто не оставлял запись к записи скачать торрент Международная пилорама с Тиграном Кеосаяном 2018.01.21 . Будь первым!

!Обратная связь