Скачать через торрент Синяя бездна Страх глубины Фильм бесплатно в хорошем качестве torrent

Скачивайте на UnionPeer.org фильмы через торрент без регистрации. Новинки кино в хорошем качестве через торрент. На UnionPeer.org можно скачать через торрент фильмы 2014 и 2015 годов. Самые новые фильмы.

Скачать торрент Синяя бездна Страх глубины бесплатно через .torrent фильм мультфильм сериал

Статистика раздачи
Размер:  1.46 GB   |    Зарегистрирован:  6 лет 1 месяц   |    .torrent скачан:  93 раза   |   
Раздают:  1  
   
 
Автор Сообщение

Galfimbul

avatar Galfimbul


Синяя бездна / Страх глубины / 47 Meters Down / In the Deep / US-Transfer
Год выпуска: 2017
Страна: Великобритания, Доминикана, США
Жанр: ужасы, триллер, драма, приключения
Продолжительность: 01:29:17
Перевод: Профессиональный (дублированный) BD RUS
Субтитры: русские (полные), английские (полные SDH)
Оригинальная аудиодорожка: английскийРежиссер: Йоханнес Робертс / Johannes RobertsВ ролях: Мэнди Мур, Клер Холт, Крис Дж. Джонсон, Яни Гельман, Сантьяго Сегура, Мэттью Модайн, Майра Хуарес, Аксель Мансилла.Описание: Отдыхая на солнечных пляжах Мексики, Лиза и ее сестра Кейт решаются на погружение в клетке к большим белым акулам. Но зрелищный аттракцион оборачивается кошмаром, когда клетка с двумя девушками срывается на океанское дно. Помощи ждать неоткуда, а кислорода остается лишь на час. Единственный выход из смертельной ловушки — плыть вверх через толщу воды, которая кишит самыми свирепыми хищниками океана.Рейтинг
kinopoisk.ru 5.646 (6745)
imdb.com 5.70 (22 842)Качество видео: BDRip (исходник: Sinyaya bezdna / BD-Remux / 1080p)
Формат видео: AVI | Sample
Видео: 720x304 (2.37:1), 23.976 fps, XviD build 73 ~1430 kbps avg, 0.27 bit/pixel
Аудио 1: 48 kHz, AC3 Dolby Digital, 3/2 (L,C,R,l,r) + LFE ch, ~448.00 kbps avg | RUS
Аудио 2: 48 kHz, AC3 Dolby Digital, 3/2 (L,C,R,l,r) + LFE ch, ~448.00 kbps avg | ENG
Формат : AVI
Формат/Информация : Audio Video Interleave
Размер файла : 1,46 Гбайт
Продолжительность : 1 ч. 29 м.
Общий поток : 2340 Кбит/сек
Название фильма : Синяя бездна / Страх глубины / 47 Meters Down / In the Deep (2017) US-Transfer
Программа кодирования : VirtualDubMod 1.5.10.2 (build 2540/release)
Библиотека кодирования : VirtualDubMod build 2540/release
Примечание : BDRip by Seven

Видео
Идентификатор : 0
Формат : MPEG-4 Visual
Профиль формата : Advanced Simple@L5
Настройки формата : BVOP1 / Custom Matrix
Параметр BVOP формата : 1
Параметр QPel формата : Нет
Параметр GMC формата : Без точки перехода
Параметр матрицы формата : Выборочная
Идентификатор кодека : XVID
Идентификатор кодека/Подсказка : XviD
Продолжительность : 1 ч. 29 м.
Битрейт : 1430 Кбит/сек
Ширина : 720 пикселей
Высота : 304 пикселя
Соотношение сторон : 2,35:1
Частота кадров : 23,976 (24000/1001) кадра/сек
Цветовое пространство : YUV
Субдискретизация насыщенности : 4:2:0
Битовая глубина : 8 бит
Тип развёртки : Прогрессивная
Метод сжатия : С потерями
Бит/(Пиксели*Кадры) : 0.273
Размер потока : 913 Мбайт (61%)
Библиотека кодирования : XviD 73

Аудио #1
Идентификатор : 1
Формат : AC-3
Формат/Информация : Audio Coding 3
Параметр Endianness формата : Big
Идентификатор кодека : 2000
Продолжительность : 1 ч. 29 м.
Вид битрейта : Постоянный
Битрейт : 448 Кбит/сек
Каналы : 6 каналов
Расположение каналов : Front: L C R, Side: L R, LFE
Частота : 48,0 КГц
Частота кадров : 31,250 кадров/сек (1536 SPF)
Битовая глубина : 16 бит
Метод сжатия : С потерями
Размер потока : 286 Мбайт (19%)
Выравнивание : Разделение по промежуткам
Продолжительность промежутка : 42 мс. (1,00 видеокадр)
Время предзагрузки промежутка : 500 мс.
ServiceKind/String : Complete Main

Аудио #2
Идентификатор : 2
Формат : AC-3
Формат/Информация : Audio Coding 3
Параметр Endianness формата : Big
Идентификатор кодека : 2000
Продолжительность : 1 ч. 29 м.
Вид битрейта : Постоянный
Битрейт : 448 Кбит/сек
Каналы : 6 каналов
Расположение каналов : Front: L C R, Side: L R, LFE
Частота : 48,0 КГц
Частота кадров : 31,250 кадров/сек (1536 SPF)
Битовая глубина : 16 бит
Метод сжатия : С потерями
Размер потока : 286 Мбайт (19%)
Выравнивание : Разделение по промежуткам
Продолжительность промежутка : 42 мс. (1,00 видеокадр)
Время предзагрузки промежутка : 500 мс.
ServiceKind/String : Complete Main
Blu-ray RUS vs US / Синяя бездна 2017


Внимание! AdBlock блокирует показ скриншотов, все вопросы к разработчикам )))
Трекер:  [ 28-Янв-2018 16:30 ]

  

Скачать .torrent

Размер .torrent файла 15 KB


Размер: 1.46 GB
Хэш (hash) релиза: d218758c71517c650cae9823edec7f89a285d310
Подписка на обновления:

Торренты, похожие на Синяя бездна Страх глубины скачать торрент

Форум Название Автор Размер S L Добавлен
Зарубежные фильмы 2016-2019 (Новинки зарубежного кино) ·· Синяя бездна / Страх глубины / 47 Meters Down / In the Deep (Йоханнес Робертс / Johannes Roberts) [2017, Великобритания, США, Доминикана, ужасы, триллер, драма, BDRip 720p] iTunes Galfimbul 53701703945 GB 0 0 1505418669

22:51

14-Сен-17

Зарубежные фильмы 2016-2019 (Новинки зарубежного кино) ·· Синяя бездна / Страх глубины / 47 Meters Down / In the Deep (Йоханнес Робертс / Johannes Roberts) [2017, США, Ужасы, триллер, драма, приключения, WEB-DLRip] Dub (iTunes) Galfimbul 15640350721.46 GB 0 0 1505323857

20:30

13-Сен-17

Зарубежные фильмы 2016-2019 (Новинки зарубежного кино) ·· Синяя бездна / Страх глубины / 47 Meters Down / In the Deep (Йоханнес Робертс / Johannes Roberts) [2017, Великобритания, США, Доминикана, ужасы, триллер, драма, WEB-DLRip] Dub Galfimbul 779476992743 MB 0 0 1505323843

20:30

13-Сен-17

Зарубежные фильмы 2016-2019 (Новинки зарубежного кино) ·· Синяя бездна / Страх глубины / 47 Meters Down / In the Deep (2016) DVDRip от ExKinoRay | L2 Galfimbul 15636172801.46 GB 0 0 1497417007

08:10

14-Июн-17

Еще никто не оставлял запись к записи скачать торрент Синяя бездна Страх глубины . Будь первым!

!Обратная связь