Скачать через торрент Сплит Расщепленный Фильм бесплатно в хорошем качестве torrent

Скачивайте на UnionPeer.org фильмы через торрент без регистрации. Новинки кино в хорошем качестве через торрент. На UnionPeer.org можно скачать через торрент фильмы 2014 и 2015 годов. Самые новые фильмы.

Скачать торрент Сплит Расщепленный бесплатно через .torrent фильм мультфильм сериал

Статистика раздачи
Размер:  2.07 GB   |    Зарегистрирован:  6 лет   |    .torrent скачан:  184 раза   |   
Раздают:  1  
 

Скачать Сплит / Расщепленный / Split (М. Найт Шьямалан / M. Night Shyamalan) [2016, США, ужасы, триллер, BDRip] AVO (Юрий Сербин) через torrent

 
 
Автор Сообщение

Galfimbul

avatar Galfimbul


Сплит / Расщепленный / Split

Страна: США
Жанр: ужасы, триллер
Год выпуска: 2016
Продолжительность: 01:57:07

Перевод: Авторский (одноголосый закадровый) Юрий Сербин
Субтитры: нет
Режиссер: М. Найт Шьямалан / M. Night Shyamalan

В ролях: Джеймс МакЭвой, Аня Тейлор-Джой, Бетти Бакли, Хейли Лу Ричардсон, Джессика Сула, Иззи Коффи, Брэд Уильям Хенке, Себастьян Арселус, Нил Хафф

Описание: Джеймс столкнулся с загадочной, опаснейшей ситуацией. Такого еще не было в его жизни, что существует противник, некая магическая сила, готовая уничтожить, стоит лишь сделать неверный шаг. Джеймс боится потерять себя самого в сложившемся хаосе, он старается настроить мысли на позитивный лад, не сдаваться темным силам, все более проникающим в его жизнь. Был бы противник очевиден, но эта незримая сущность, что-то зловещее и необъяснимое, проникает в мир вокруг Джеймса, и как разорвать эту связь? Прошлое парня дает ему опыт, где нужно черпать силы, чтобы выбраться из сложившейся западни. Однако противостоящая сила хладнокровна, расчетлива, безжалостна и, словно знает следующие действия жертвы… Джеймс умен, дальновиден, мыслит рационально, но может ли человек противопоставить свои возможности темной бездне? Кто или что проверяет героя на прочность? Быть может, это сама судьба? В таком случае можно надеяться, что силы свыше посылают лишь то, что человек способен преодолеть…

Сэмпл: http://multi-up.com/1184978

Качество видео: BDRip (Исходник Blu-ray disc 1080p)
Формат видео: AVI

Видео: XviD 73, 720x304, (2,35:1), 23,976 fps, 2069 Кбит/с, 8 бит
Аудио: Русский (АС3, 6 ch (Front: L C R, Side: L R, LFE), 48,0 KHz, 448 Kbps)
ОбщееПолное имя : H:\Фильмы на трекер\Сплит (ужасы, триллер 2016 год).aviФормат : AVIФормат/Информация : Audio Video InterleaveПрофиль формата : OpenDMLРазмер файла : 2,07 ГбайтПродолжительность : 1 ч. 57 м.Общий поток : 2529 Кбит/секПрограмма кодирования : VirtualDubMod 1.5.10.2 (build 2540/release)Библиотека кодирования : VirtualDubMod build 2540/release

ВидеоИдентификатор : 0Формат : MPEG-4 VisualПрофиль формата : Advanced Simple@L5Параметр BVOP формата : 2Параметр QPel формата : НетПараметр GMC формата : Без точки переходаПараметр матрицы формата : ВыборочнаяИдентификатор кодека : XVIDИдентификатор кодека/Подсказка : XviDПродолжительность : 1 ч. 57 м.Битрейт : 2069 Кбит/секШирина : 720 пикселейВысота : 304 пикселяСоотношение сторон : 2,35:1Частота кадров : 23,976 (23976/1000) кадра/секЦветовое пространство : YUVСубдискретизация насыщенности : 4:2:0Битовая глубина : 8 битТип развёртки : ПрогрессивнаяМетод сжатия : С потерямиБит/(Пиксели*Кадры) : 0.394Размер потока : 1,69 Гбайт (82%)Библиотека кодирования : XviD 73

АудиоИдентификатор : 1Формат : AC-3Формат/Информация : Audio Coding 3Расширение режима : CM (complete main)Параметр Endianness формата : BigИдентификатор кодека : 2000Продолжительность : 1 ч. 57 м.Вид битрейта : ПостоянныйБитрейт : 448 Кбит/секКаналы : 6 каналовРасположение каналов : Front: L C R, Side: L R, LFEЧастота : 48,0 КГцЧастота кадров : 31,250 кадров/сек (1536 spf)Метод сжатия : С потерямиРазмер потока : 375 Мбайт (18%)Выравнивание : Разделение по промежуткамПродолжительность промежутка : 42 мс. (1,00 видеокадр)Время предзагрузки промежутка : 500 мс.


Внимание! AdBlock блокирует показ скриншотов, все вопросы к разработчикам )))
Трекер:  [ 29-Янв-2018 18:30 ]

  

Скачать .torrent

Размер .torrent файла 11 KB


Размер: 2.07 GB
Хэш (hash) релиза: 7d342dcbc5d4b4a8bc2cd72fa20b797fc092e6ad
Подписка на обновления:

Еще никто не оставлял запись к записи скачать торрент Сплит Расщепленный . Будь первым!

!Обратная связь