Скачать через торрент Открывая клетку Unlocking The Cage Фильм бесплатно в хорошем качестве torrent

Скачивайте на UnionPeer.org фильмы через торрент без регистрации. Новинки кино в хорошем качестве через торрент. На UnionPeer.org можно скачать через торрент фильмы 2014 и 2015 годов. Самые новые фильмы.

Скачать торрент Открывая клетку Unlocking The Cage бесплатно через .torrent фильм мультфильм сериал

Статистика раздачи
Размер:  2.53 GB   |    Зарегистрирован:  6 лет   |    .torrent скачан:  32 раза   |   
Раздают:  1  
   
 
Автор Сообщение

Galfimbul

avatar Galfimbul


Открывая клетку / Unlocking The Cage

Страна: США
Жанр: Документальный
Год выпуска: 2016
Продолжительность: 01:31:40

Перевод: Субтитры
Субтитры: русские
Оригинальная аудиодорожка: английский

Режиссер: Крис Хегедус / Chris Hegedus, Донн Алан Пеннебакер / Donn Alan Pennebaker

В ролях: Стивен М. Уайз

Описание: Это картина о слабых и сильных, об ошеломляющем упорстве и трогательном самопожертвовании, об огромной любви и мелочной корысти, о страданиях и битвах за их окончание. Эта будоражащая, но вместе с тем такая уютная документальная драма также напомнит о том, что каждый может проявить себя в борьбе за освобождение животных с неожиданной яркостью, стоит только правильно навести фокус и осмысленно выставить экспозицию.

И пускай сейчас это может показаться наивным, но, вот увидите: некоторые из нас наверняка еще припомнят времена, когда с таким скрипом открывались первые клетки. Как сказал Мартин Лютер Кинг, «дуга человеческой истории длинна, но она сгибается в сторону справедливости».

Сэмпл: https://www.sendspace.com/file/q14hu4

Качество видео: HDRip
Формат видео: MKV

Видео: MPEG-4p10/AVC/h.264, 1920x1080, 16:9, 23,976, 3494 Кбит/сек
Аудио: A_AC3, 48,0 КГц, 384 Кбит/сек, Front: L C R, Side: L R, LFE
Формат субтитров: softsub (SSA/ASS)
ОбщееУникальный идентификатор : 204230218695871277612407711156853083228 (0x99A54F331A419BB7BF4ACEC840610C5C)Полное имя : C:\Unlocking_the_Cage_rus\unlocking.the.cage.2016.1080p.webrip.dd5.1.x264-monkee.mkvФормат : MatroskaВерсия формата : Version 4 / Version 2Размер файла : 2,53 ГбайтПродолжительность : 1 ч. 31 м.Режим общего битрейта : ПеременныйОбщий поток : 3956 Кбит/секДата кодирования : UTC 2017-02-21 01:35:21Программа кодирования : mkvmerge v9.6.0 ('Slave To Your Mind') 64bitБиблиотека кодирования : libebml v1.3.4 + libmatroska v1.4.5

ВидеоИдентификатор : 1Формат : AVCФормат/Информация : Advanced Video CodecПрофиль формата : High@L4Настройки формата : CABAC / 4 Ref FramesПараметр CABAC формата : ДаПараметр RefFrames формата : 4 кадраИдентификатор кодека : V_MPEG4/ISO/AVCПродолжительность : 1 ч. 31 м.Вид битрейта : ПеременныйБитрейт : 3494 Кбит/секМаксимальный битрейт : 4510 Кбит/секШирина : 1920 пикселейВысота : 1080 пикселейСоотношение сторон : 16:9Режим частоты кадров : ПостоянныйЧастота кадров : 23,976 (24000/1001) кадра/секЦветовое пространство : YUVСубдискретизация насыщенности : 4:2:0Битовая глубина : 8 битТип развёртки : ПрогрессивнаяБит/(Пиксели*Кадры) : 0.070Размер потока : 2,24 Гбайт (88%)Default : ДаForced : Нет

АудиоИдентификатор : 2Формат : AC-3Формат/Информация : Audio Coding 3Идентификатор кодека : A_AC3Продолжительность : 1 ч. 31 м.Вид битрейта : ПостоянныйБитрейт : 384 Кбит/секКаналы : 6 каналовРасположение каналов : Front: L C R, Side: L R, LFEЧастота : 48,0 КГцЧастота кадров : 31,250 кадров/сек (1536 SPF)Битовая глубина : 16 битМетод сжатия : С потерямиРазмер потока : 252 Мбайт (10%)Язык : EnglishServiceKind/String : Complete MainDefault : ДаForced : Нет

ТекстИдентификатор : 3Формат : UTF-8Идентификатор кодека : S_TEXT/UTF8Идентификатор кодека/Информация : UTF-8 Plain TextЯзык : EnglishDefault : НетForced : Нет


Внимание! AdBlock блокирует показ скриншотов, все вопросы к разработчикам )))
Трекер:  [ 02-Фев-2018 05:42 ]

  

Скачать .torrent

Размер .torrent файла 13 KB


Размер: 2.53 GB
Хэш (hash) релиза: e32bd90ef49378a6c3db26e42dad839726d09590
Подписка на обновления:

Еще никто не оставлял запись к записи скачать торрент Открывая клетку Unlocking The Cage . Будь первым!

!Обратная связь