Скачать через торрент Отмель The Shallows Фильм бесплатно в хорошем качестве torrent

Скачивайте на UnionPeer.org фильмы через торрент без регистрации. Новинки кино в хорошем качестве через торрент. На UnionPeer.org можно скачать через торрент фильмы 2014 и 2015 годов. Самые новые фильмы.

Скачать торрент Отмель The Shallows бесплатно через .torrent фильм мультфильм сериал

Статистика раздачи
Размер:  7.97 GB   |    Зарегистрирован:  6 лет   |    .torrent скачан:  74 раза   |   
Раздают:  1  
 

Скачать Отмель / The Shallows (Хауме Кольет-Серра / Jaume Collet-Serra) [2016, США, ужасы, триллер, драма, BDRip 1080p] US Transfer | D через torrent

 
 
Автор Сообщение

Galfimbul

avatar Galfimbul


Отмель /The Shallows

Год выхода: 2016
Жанр: ужасы, драма
Режиссер: Хауме Кольет-Серра
В ролях: Блейк Лайвли, Оскар Хаэнада, Бретт Каллен, Седона Ледже, Пабло Кальва, Диего Эспехель, Джанелл Бэйли, Ава Дин, Челси Муди, Салли Сигалл

О фильме:
Бескрайний океан, безлюдный пляж и идеальная погода для серфингистов в поисках хорошей волны. Казалось бы, ничто не предвещает беды для очаровательной любительницы серфинга в одиночку. Разве что свидание тет-а-тет с гигантской акулой, которая загонит спортсменку на песчаную отмель и не отступит до тех пор, пока не получит своё.


Страна: CША
Студия: Columbia Pictures, Ombra Films, Weimaraner Republic Pictures
Продолжительность: 01:26:16
Перевод: Профессиональный (дублированный)
Complete name : F:The Shallows.2016.x264.FHDRip_1080p.stimco.mkv
Format : Matroska
Format version : Version 4 / Version 2
File size : 7.97 GiB
Duration : 1 h 26 min
Overall bit rate : 13.2 Mb/s
Movie name : =The Shallows=
Encoded date : UTC 2018-02-10 08:24:01
Writing application : mkvmerge v20.0.0 ('I Am The Sun') 64-bit
Writing library : libebml v1.3.5 + libmatroska v1.4.8

Video
ID : 1
Format : AVC
Format/Info : Advanced Video Codec
Format profile : [email protected]
Format settings : CABAC / 5 Ref Frames
Format settings, CABAC : Yes
Format settings, ReFrames : 5 frames
Codec ID : V_MPEG4/ISO/AVC
Duration : 1 h 26 min
Bit rate : 10.4 Mb/s
Width : 1 920 pixels
Height : 800 pixels
Display aspect ratio : 2.40:1
Frame rate mode : Constant
Frame rate : 23.976 (24000/1001) FPS
Color space : YUV
Chroma subsampling : 4:2:0
Bit depth : 8 bits
Scan type : Progressive
Bits/(Pixel*Frame) : 0.283
Stream size : 6.28 GiB (79%)
Title : The Shallows_1080p_FHDRip
Writing library : x264 core 155 r2901 7d0ff22
Encoding settings : cabac=1 / ref=5 / deblock=1:-3:-3 / analyse=0x3:0x133 / me=umh / subme=10 / psy=1 / psy_rd=1.00:0.10 / mixed_ref=1 / me_range=45 / chroma_me=1 / trellis=2 / 8x8dct=1 / cqm=0 / deadzone=21,11 / fast_pskip=1 / chroma_qp_offset=-2 / threads=6 / lookahead_threads=1 / sliced_threads=0 / nr=0 / decimate=1 / interlaced=0 / bluray_compat=0 / constrained_intra=0 / bframes=8 / b_pyramid=2 / b_adapt=2 / b_bias=0 / direct=1 / weightb=1 / open_gop=0 / weightp=2 / keyint=240 / keyint_min=23 / scenecut=40 / intra_refresh=0 / rc_lookahead=65 / rc=crf / mbtree=1 / crf=17.5 / qcomp=0.60 / qpmin=0 / qpmax=65 / qpstep=4 / vbv_maxrate=62500 / vbv_bufsize=78125 / crf_max=0.0 / nal_hrd=none / filler=0 / ip_ratio=1.30 / aq=1:0.80
Language : English
Default : Yes
Forced : No

Audio #1
ID : 2
Format : AC-3
Format/Info : Audio Coding 3
Codec ID : A_AC3
Duration : 1 h 26 min
Bit rate mode : Constant
Bit rate : 640 kb/s
Channel(s) : 6 channels
Channel positions : Front: L C R, Side: L R, LFE
Sampling rate : 48.0 kHz
Frame rate : 31.250 FPS (1536 SPF)
Bit depth : 16 bits
Compression mode : Lossy
Stream size : 395 MiB (5%)
Title : DUB_BD
Language : Russian
Service kind : Complete Main
Default : No
Forced : No

Audio #2
ID : 3
Format : DTS
Format/Info : Digital Theater Systems
Codec ID : A_DTS
Duration : 1 h 26 min
Bit rate mode : Constant
Bit rate : 1 509 kb/s
Channel(s) : 6 channels
Channel positions : Front: L C R, Side: L R, LFE
Sampling rate : 48.0 kHz
Frame rate : 93.750 FPS (512 SPF)
Bit depth : 24 bits
Compression mode : Lossy
Stream size : 931 MiB (11%)
Title : DUB [by_Sergesha]
Language : Russian
Default : Yes
Forced : No

Audio #3
ID : 4
Format : AC-3
Format/Info : Audio Coding 3
Codec ID : A_AC3
Duration : 1 h 26 min
Bit rate mode : Constant
Bit rate : 640 kb/s
Channel(s) : 6 channels
Channel positions : Front: L C R, Side: L R, LFE
Sampling rate : 48.0 kHz
Frame rate : 31.250 FPS (1536 SPF)
Bit depth : 16 bits
Compression mode : Lossy
Stream size : 395 MiB (5%)
Language : English
Service kind : Complete Main
Default : No
Forced : No

Text #1
ID : 5
Format : PGS
Muxing mode : zlib
Codec ID : S_HDMV/PGS
Codec ID/Info : Picture based subtitle format used on BDs/HD-DVDs
Duration : 1 h 23 min
Bit rate : 663 b/s
Count of elements : 84
Stream size : 405 KiB (0%)
Title : forced [by_Sergesha]
Language : Russian
Default : Yes
Forced : No

Text #2
ID : 6
Format : PGS
Muxing mode : zlib
Codec ID : S_HDMV/PGS
Codec ID/Info : Picture based subtitle format used on BDs/HD-DVDs
Duration : 1 h 19 min
Bit rate : 843 b/s
Count of elements : 72
Stream size : 490 KiB (0%)
Title : forced
Language : Russian
Default : No
Forced : No

Text #3
ID : 7
Format : PGS
Muxing mode : zlib
Codec ID : S_HDMV/PGS
Codec ID/Info : Picture based subtitle format used on BDs/HD-DVDs
Duration : 1 h 19 min
Bit rate : 10.9 kb/s
Count of elements : 920
Stream size : 6.22 MiB (0%)
Title : full
Language : Russian
Default : No
Forced : No

Text #4
ID : 8
Format : PGS
Muxing mode : zlib
Codec ID : S_HDMV/PGS
Codec ID/Info : Picture based subtitle format used on BDs/HD-DVDs
Duration : 12 min 31 s
Bit rate : 1 839 b/s
Count of elements : 32
Stream size : 169 KiB (0%)
Title : forced
Language : Ukrainian
Default : No
Forced : No

Text #5
ID : 9
Format : PGS
Muxing mode : zlib
Codec ID : S_HDMV/PGS
Codec ID/Info : Picture based subtitle format used on BDs/HD-DVDs
Duration : 1 h 18 min
Bit rate : 10.8 kb/s
Count of elements : 914
Stream size : 6.04 MiB (0%)
Title : full
Language : Ukrainian
Default : No
Forced : No

Text #6
ID : 10
Format : PGS
Muxing mode : zlib
Codec ID : S_HDMV/PGS
Codec ID/Info : Picture based subtitle format used on BDs/HD-DVDs
Duration : 1 h 17 min
Bit rate : 11.5 kb/s
Count of elements : 892
Stream size : 6.36 MiB (0%)
Title : full
Language : English
Default : No
Forced : No

Text #7
ID : 11
Format : PGS
Muxing mode : zlib
Codec ID : S_HDMV/PGS
Codec ID/Info : Picture based subtitle format used on BDs/HD-DVDs
Duration : 1 h 25 min
Bit rate : 18.0 kb/s
Count of elements : 1852
Stream size : 11.0 MiB (0%)
Title : SDH
Language : English
Default : No
Forced : No

Menu
00:00:00.000 : en:00:00:00.000
00:08:09.697 : en:00:08:09.697
00:15:10.409 : en:00:15:10.409
00:20:31.939 : en:00:20:31.939
00:25:45.877 : en:00:25:45.877
00:30:07.055 : en:00:30:07.055
00:36:04.120 : en:00:36:04.120
00:40:39.687 : en:00:40:39.687
00:45:41.614 : en:00:45:41.614
00:49:32.219 : en:00:49:32.219
00:55:57.979 : en:00:55:57.979
01:01:21.511 : en:01:01:21.511
01:06:22.561 : en:01:06:22.561
01:09:57.443 : en:01:09:57.443
01:13:38.706 : en:01:13:38.706
01:19:01.487 : en:01:19:01.487
Файл
Кодек: х.264
Качество: BDRip 1080p
Видео: 1920x800, 23.976 fps, 10400 kbps
Звук:
Pусский (AC3, 6 ch, 640 Кбит/с) - Дублированный (Blu-ray)
Русский DTS Audio 5.1 / 48 kHz / 1509 kbps / 24-bit - Дублированный [ ред. by Sergesha]
Английский (AC3, 6 ch, 640 Кбит/с)
Субтитры: Русские, украинские, английские Источник http://arutor.org

Внимание! AdBlock блокирует показ скриншотов, все вопросы к разработчикам )))
Трекер:  [ 11-Фев-2018 08:20 ]

  

Скачать .torrent

Размер .torrent файла 40 KB


Размер: 7.97 GB
Хэш (hash) релиза: 67e91e6921554423296ad65ebd86990f45cd06ff
Подписка на обновления:

Торренты, похожие на Отмель The Shallows скачать торрент

Форум Название Автор Размер S L Добавлен
Зарубежные фильмы 2016-2019 (Новинки зарубежного кино) ·· Отмель / The Shallows (Хауме Кольет-Серра / Jaume Collet-Serra) [2016, США, ужасы, триллер, драма, BDRip] AVO (Вартан Дохалов) Galfimbul 15696670721.46 GB 0 0 1500402648

21:30

18-Июл-17

Зарубежные фильмы до 2016 ·· Отмель / The Shallows (Хауме Кольет-Серра / Jaume Collet-Serra) [2016, США, ужасы, триллер, драма, BD> DVD5 (Custom)] DUB + AVO + Sub Rus / Eng + Original Eng Galfimbul 46439321604.32 GB 0 0 1496860577

21:36

7-Июн-17

Зарубежные фильмы 2016-2019 (Новинки зарубежного кино) ·· Отмель / The Shallows (Хауме Кольет-Серра / Jaume Collet-Serra) [2016, США, ужасы, триллер, драма, Blu-Ray EUR 1080p] Лицензия Galfimbul 2822162521926.28 GB 0 0 1481958733

10:12

17-Дек-16

Зарубежные фильмы до 2016 ·· Отмель / The Shallows (Хауме Кольет-Серра / Jaume Collet-Serra) [2016, США, ужасы, триллер, драма, Blu-ray disc 1080p] [EUR] Dub + Sub Rus, Eng + Original Eng Galfimbul 2822162521926.28 GB 0 0 1481745363

22:56

14-Дек-16

Зарубежные фильмы 2016-2019 (Новинки зарубежного кино) ·· Отмель / The Shallows (Хауме Кольет-Серра / Jaume Collet-Serra) [2016, США, Ужасы, триллер, драма, BDRip-AVC] Dub (BD EUR) + Original (Eng) + Subs (Rus, Eng) Galfimbul 15595101841.45 GB 0 0 1481207310

17:28

8-Дек-16

Зарубежные фильмы 2016-2019 (Новинки зарубежного кино) ·· Отмель / The Shallows (Хауме Кольет-Серра / Jaume Collet-Serra) [2016, США, Ужасы, триллер, драма, BDRip] Dub (BD EUR) + Original (Eng) + Subs (Rus, Eng) Galfimbul 15715619291.46 GB 0 0 1481207246

17:27

8-Дек-16

Зарубежные фильмы до 2016 ·· Отмель / The Shallows (Хауме Кольет-Серра / Jaume Collet-Serra) [2016, США, ужасы, триллер, драма, BDRip 720p] Dub + Sub Rus, Eng + Original Eng Galfimbul 60043533615.59 GB 0 0 1481015282

12:08

6-Дек-16

Зарубежные фильмы 2016-2019 (Новинки зарубежного кино) ·· Отмель / The Shallows (Хауме Кольет-Серра / Jaume Collet-Serra) [2016, США, ужасы, триллер, драма, BDRip] Dub + Subs (Rus, Eng) + Original Eng Galfimbul 23539880412.19 GB 0 0 1476165698

09:01

11-Окт-16

Зарубежные фильмы 2016-2019 (Новинки зарубежного кино) ·· Отмель / The Shallows (Хауме Кольет-Серра / Jaume Collet-Serra) [2016, США, ужасы, триллер, драма, BDRip] Dub Galfimbul 780251136744 MB 0 0 1473933125

12:52

15-Сен-16

Зарубежные фильмы 2016-2019 (Новинки зарубежного кино) ·· Отмель / The Shallows (Хауме Кольет-Серра / Jaume Collet-Serra) [2016, США, Ужасы, триллер, драма, BDRip 1080p] iTunes Galfimbul 92744719088.64 GB 0 0 1473545493

01:11

11-Сен-16

Зарубежные фильмы 2016-2019 (Новинки зарубежного кино) ·· Отмель / The Shallows (Хауме Кольет-Серра / Jaume Collet-Serra) [2016, США, Ужасы, триллер, драма, BDRip 1080p] iTunes Galfimbul 72874099546.79 GB 0 0 1473534748

22:12

10-Сен-16

Зарубежные фильмы 2016-2019 (Новинки зарубежного кино) ·· Отмель / The Shallows (Хауме Кольет-Серра / Jaume Collet-Serra) [2016, США, Ужасы, триллер, драма, WEB-DLRip] Dub (iTunes) + Original (Eng) + Subs (Rus, Eng) Galfimbul 16894338011.57 GB 0 0 1473451645

23:07

9-Сен-16

Зарубежные фильмы 2016-2019 (Новинки зарубежного кино) ·· Отмель / The Shallows (Хауме Кольет-Серра / Jaume Collet-Serra) [2016, США, Ужасы, триллер, драма, WEB-DLRip-AVC] Dub (iTunes) + Original (Eng) + Subs (Rus, Eng) Galfimbul 15552188701.45 GB 0 0 1473451636

23:07

9-Сен-16

Зарубежные фильмы 2016-2019 (Новинки зарубежного кино) ·· Отмель / The Shallows (Лоран Тирар) [2016 г., Ужасы, триллер, драма, WEB-DLRip] iTunes Galfimbul 781381632745 MB 0 0 1473331334

13:42

8-Сен-16

Зарубежные фильмы 2016-2019 (Новинки зарубежного кино) ·· Отмель / The Shallows (Лоран Тирар) [2016 г., Ужасы, триллер, драма, WEB-DL 1080p] iTunes Galfimbul 33148228843.09 GB 0 0 1473279044

23:10

7-Сен-16

Зарубежные фильмы 2016-2019 (Новинки зарубежного кино) ·· Отмель / The Shallows (Лоран Тирар) [2016 г., Ужасы, триллер, драма, WEB-DL 720p] iTunes Galfimbul 30592806722.85 GB 0 0 1473277274

22:41

7-Сен-16

Зарубежные фильмы 2016-2019 (Новинки зарубежного кино) ·· Отмель / The Shallows (Лоран Тирар) [2016 г., Ужасы, триллер, драма, WEB-DLRip] iTunes Galfimbul 14715760641.37 GB 0 0 1473277268

22:41

7-Сен-16

Зарубежные фильмы 2016-2019 (Новинки зарубежного кино) ·· Отмель / The Shallows (Лоран Тирар) [2016 г., Ужасы, триллер, драма, TS] Line Galfimbul 14679592961.37 GB 0 0 1473055906

09:11

5-Сен-16

Зарубежные фильмы 2016-2019 (Новинки зарубежного кино) ·· Отмель / The Shallows (Лоран Тирар) [2016 г., Ужасы, триллер, драма, TS] Galfimbul 14675537921.37 GB 0 0 1468204832

05:40

11-Июл-16

Еще никто не оставлял запись к записи скачать торрент Отмель The Shallows . Будь первым!

!Обратная связь