Скачать через торрент Смертельная игра Headgame Фильм бесплатно в хорошем качестве torrent

Скачивайте на UnionPeer.org фильмы через торрент без регистрации. Новинки кино в хорошем качестве через торрент. На UnionPeer.org можно скачать через торрент фильмы 2014 и 2015 годов. Самые новые фильмы.

Скачать торрент Смертельная игра Headgame бесплатно через .torrent фильм мультфильм сериал

Статистика раздачи
Размер:  2.29 GB   |    Зарегистрирован:  8 месяцев   |    .torrent скачан:  201 раз   |   
Раздают:  1  
   
загрузка...
 
Автор Сообщение

Galfimbul

avatar Galfimbul


Смертельная игра /Headgame

Год выхода: 2018
Жанр: ужасы
Режиссер: Стивен Джудд
В ролях: Леонард Робертс, Джэми Хилл, Ханна Миддлтон, Карли Стил, Камерон Бауэн, Сидни Эллисон, Эдуард Гелхаус, Крис Хэйес, Прессли Кокер, Марина Орлова и другие
О фильме:
Компания незнакомых молодых людей просыпается запертой в закрытом помещении. Каждый из них обладает какими-то своими физическими особенностями и каждый из них теперь участник игры. Правила просты; есть дверь, есть ключ и только один из них может выйти.



Страна: США, Sunday Funday Films, Untethered Productions, 2nd Nature Films
Продолжительность: 01:32:32
Перевод: Любительский (двухголосый закадровый) | HiWay Grope

Файл
Кодек: MPEG-4 AVC/H.264
Качество: WEBRip 720p
Видео: 1280x720, 23.976 fps, ~3253 kbps avg, 0.147 bit/pixel
Звук:
Аудио rus: AC3, 48 kHz, 6 ch, 224 Kbps
Субтитры: отсутствуют

Реклама: присутствует



Семпл
General
Unique ID : 244024934197967278254929606519979800711 (0xB7957E27CE76D827854988A36A407887)
Complete name : E:Headgame.2018.720p.WEBRip.HiWayGropeHeadgame.2018.720p.WEBRip.HiWayGrope.mkv
Format : Matroska
Format version : Version 4 / Version 2
File size : 2.29 GiB
Duration : 1h 32mn
Overall bit rate : 3 548 Kbps
Encoded date : UTC 2018-02-13 15:41:26
Writing application : mkvmerge v18.0.0 ('Apricity') 64-bit
Writing library : libebml v1.3.5 + libmatroska v1.4.8

Video
ID : 1
Format : AVC
Format/Info : Advanced Video Codec
Format profile : Main@L4.1
Format settings, CABAC : Yes
Format settings, ReFrames : 3 frames
Codec ID : V_MPEG4/ISO/AVC
Duration : 1h 32mn
Bit rate : 3 253 Kbps
Width : 1 280 pixels
Height : 720 pixels
Display aspect ratio : 16:9
Frame rate mode : Constant
Frame rate : 23.976 (24000/1001) fps
Standard : PAL
Color space : YUV
Chroma subsampling : 4:2:0
Bit depth : 8 bits
Scan type : Progressive
Bits/(Pixel*Frame) : 0.147
Stream size : 2.10 GiB (92%)
Language : English
Default : Yes
Forced : No
Color range : Limited
Color primaries : BT.709
Transfer characteristics : BT.709
Matrix coefficients : BT.709

Audio
ID : 2
Format : AC-3
Format/Info : Audio Coding 3
Mode extension : CM (complete main)
Format settings, Endianness : Big
Codec ID : A_AC3
Duration : 1h 32mn
Bit rate mode : Constant
Bit rate : 224 Kbps
Channel(s) : 6 channels
Channel positions : Front: L C R, Side: L R, LFE
Sampling rate : 48.0 KHz
Frame rate : 31.250 fps (1536 spf)
Compression mode : Lossy
Stream size : 148 MiB (6%)
Title : rus
Language : Russian
Default : Yes
Forced : No
Релиз от: HiWay Grope
Источник http://arutor.org

Трекер:  [ 13-Фев-2018 19:20 ]

  

Скачать .torrent

Размер .torrent файла 12 KB


Размер: 2.29 GB
Хэш (hash) релиза: 79e2f8effbf45d41c296671cf0677f4637b1c902
Подписка на обновления:

Еще никто не оставлял запись к записи скачать торрент Смертельная игра Headgame . Будь первым!

!Обратная связь