Скачать через торрент Четверо против банка Vier gegen die Bank Фильм бесплатно в хорошем качестве torrent

Скачивайте на UnionPeer.org фильмы через торрент без регистрации. Новинки кино в хорошем качестве через торрент. На UnionPeer.org можно скачать через торрент фильмы 2014 и 2015 годов. Самые новые фильмы.

Скачать торрент Четверо против банка Vier gegen die Bank бесплатно через .torrent фильм мультфильм сериал

Если у вас наблюдаются проблемы со скриншотами, переходом по ссылками, скачиванием торрентов - проблемы в блокировщике рекламы AdBlock. #хорошегоДня!


Статистика раздачи
Размер:  1.98 GB   |    Зарегистрирован:  12 дней   |    .torrent скачан:  93 раза   |   
Раздают:  5  
   
Загрузка...
 
Автор Сообщение

Galfimbul

avatar Galfimbul


Четверо против банка /Vier gegen die Bank

Год выхода: 2016
Жанр: Комедия, криминал
Режиссер: Вольфганг Петерсен
В ролях: Антье Трауэ, Александра Мария Лара, Тиль Швайгер, Яна Палласке, Маттиас Швайгхефер, Клаудия Михельсен, Михаэль Хербиг, Ян Йозеф Лиферс, Фахри Огюн Ярдим, Ясмин Лорд
О фильме:
Актер, спортсмен и рекламный агент инвестируют все свои сбережения под хорошие проценты, но неожиданно их счета прогорают. Им остается только топить свое горе в ближайшем баре, где они встречают своего инвестиционного агента. Разгневанная троица пытается выместить зло на нем, но тот сам оказался жертвой начальства и лишился работы. Теперь у этой четверки есть выбор: смириться с ударом судьбы или спланировать и осуществить дерзкое ограбление банка, чтобы вернуть свои кровно заработанные.

Выпущено: Германия, Hellinger / Doll Filmproduktion, Warner Bros. GmbH
Продолжительность: 01:36:02
Перевод: Дублированный | iTunes
Файл
Кодек: H.264
Качество: BDRip (AVC)
Видео: MPEG-4 AVC, 2180 Кбит/с, 1024x426
Звук: Русский, немецкие (AC3, 6 ch, 384 Кбит/с)
Субтитры: Русские, английские, немецкие

Без какой-либо рекламы
Формат : Matroska
Версия формата : Version 4 / Version 2
Размер файла : 1,98 Гбайт
Продолжительность : 1 ч. 36 м.
Общий поток : 2948 Кбит/сек
Название фильма : Chetvero.Protiv.Banka.2016.x264.BDRip.(AVC).ExKinoRay
Дата кодирования : UTC 2018-02-13 17:18:53
Программа кодирования : mkvmerge v17.0.0 ('Be Ur Friend') 64-bit
Библиотека кодирования : libebml v1.3.5 + libmatroska v1.4.8

Видео
Идентификатор : 1
Формат : AVC
Формат/Информация : Advanced Video Codec
Профиль формата : High@L4.1
Параметр CABAC формата : Да
Параметр ReFrames формата : 12 кадров
Идентификатор кодека : V_MPEG4/ISO/AVC
Продолжительность : 1 ч. 35 м.
Битрейт : 2180 Кбит/сек
Ширина : 1024 пикселя
Высота : 426 пикселей
Соотношение сторон : 2,40:1
Режим частоты кадров : Постоянный
Частота кадров : 23,976 (24000/1001) кадра/сек
Цветовое пространство : YUV
Субдискретизация насыщенности : 4:2:0
Битовая глубина : 8 бит
Тип развёртки : Прогрессивная
Бит/(Пиксели*Кадры) : 0.208
Размер потока : 1,46 Гбайт (74%)
Заголовок : ExKinoRay
Библиотека кодирования : x264 core 146 r2538 121396c
Настройки программы : cabac=1 / ref=12 / deblock=1:-2:-2 / analyse=0x3:0x113 / me=umh / subme=11 / psy=1 / psy_rd=1.00:0.00 / mixed_ref=1 / me_range=32 / chroma_me=1 / trellis=2 / 8x8dct=1 / cqm=0 / deadzone=21,11 / fast_pskip=0 / chroma_qp_offset=-3 / threads=6 / lookahead_threads=1 / sliced_threads=0 / nr=0 / decimate=0 / interlaced=0 / bluray_compat=0 / constrained_intra=0 / bframes=10 / b_pyramid=2 / b_adapt=2 / b_bias=0 / direct=3 / weightb=1 / open_gop=0 / weightp=2 / keyint=240 / keyint_min=23 / scenecut=40 / intra_refresh=0 / rc_lookahead=40 / rc=2pass / mbtree=0 / bitrate=2180 / ratetol=1.0 / qcomp=0.60 / qpmin=0 / qpmax=51 / qpstep=4 / cplxblur=20.0 / qblur=0.5 / vbv_maxrate=50000 / vbv_bufsize=62500 / nal_hrd=none / filler=0 / ip_ratio=1.40 / pb_ratio=1.30 / aq=2:1.00
Язык : German
Default : Да
Forced : Нет

Аудио #1
Идентификатор : 2
Формат : AC-3
Формат/Информация : Audio Coding 3
Расширение режима : CM (complete main)
Параметр Endianness формата : Big
Идентификатор кодека : A_AC3
Продолжительность : 1 ч. 36 м.
Вид битрейта : Постоянный
Битрейт : 384 Кбит/сек
Каналы : 6 каналов
Расположение каналов : Front: L C R, Side: L R, LFE
Частота : 48,0 КГц
Частота кадров : 31,250 кадров/сек (1536 spf)
Битовая глубина : 16 бит
Метод сжатия : С потерями
Размер потока : 264 Мбайт (13%)
Язык : Russian
Default : Да
Forced : Нет

Аудио #2
Идентификатор : 3
Формат : AC-3
Формат/Информация : Audio Coding 3
Расширение режима : CM (complete main)
Параметр Endianness формата : Big
Идентификатор кодека : A_AC3
Продолжительность : 1 ч. 35 м.
Вид битрейта : Постоянный
Битрейт : 384 Кбит/сек
Каналы : 6 каналов
Расположение каналов : Front: L C R, Side: L R, LFE
Частота : 48,0 КГц
Частота кадров : 31,250 кадров/сек (1536 spf)
Битовая глубина : 16 бит
Метод сжатия : С потерями
Размер потока : 264 Мбайт (13%)
Язык : German
Default : Нет
Forced : Нет

Текст #1
Идентификатор : 4
Формат : UTF-8
Идентификатор кодека : S_TEXT/UTF8
Идентификатор кодека/Информация : UTF-8 Plain Text
Продолжительность : 1 ч. 29 м.
Битрейт : 125 бит/сек
Count of elements : 1303
Размер потока : 82,6 Кбайт (0%)
Язык : Russian
Default : Нет
Forced : Нет

Текст #2
Идентификатор : 5
Формат : UTF-8
Идентификатор кодека : S_TEXT/UTF8
Идентификатор кодека/Информация : UTF-8 Plain Text
Продолжительность : 1 ч. 31 м.
Битрейт : 63 бит/сек
Count of elements : 1113
Размер потока : 42,4 Кбайт (0%)
Язык : English
Default : Нет
Forced : Нет

Текст #3
Идентификатор : 6
Формат : UTF-8
Идентификатор кодека : S_TEXT/UTF8
Идентификатор кодека/Информация : UTF-8 Plain Text
Продолжительность : 1 ч. 28 м.
Битрейт : 74 бит/сек
Count of elements : 1245
Размер потока : 47,9 Кбайт (0%)
Язык : German
Default : Нет
Forced : Нет

Меню
00:00:00.000 : en:00:00:00.000
00:09:38.703 : en:00:09:38.703
00:17:04.232 : en:00:17:04.232
00:25:13.721 : en:00:25:13.721
00:34:46.042 : en:00:34:46.042
00:42:16.284 : en:00:42:16.284
00:48:43.963 : en:00:48:43.963
00:56:12.953 : en:00:56:12.953
01:02:25.659 : en:01:02:25.659
01:10:42.280 : en:01:10:42.280
01:20:28.323 : en:01:20:28.323
01:27:11.184 : en:01:27:11.184
Релиз от:
Источник http://arutor.org

Трекер:  [ 13-Фев-2018 21:20 ]

  

Скачать .torrent

Размер .torrent файла 20 KB


Размер: 1.98 GB
Хэш (hash) релиза: b7fd07630cb4cdc41cc412337da1d0688c17fbc8
Подписка на обновления:

Торренты, похожие на Четверо против банка Vier gegen die Bank скачать торрент

Форум Название Автор Размер S L Добавлен
Зарубежные фильмы 2016-2018 (Новинки зарубежного кино) ·· Четверо против банка / Vier gegen die Bank (Вольфганг Петерсен / Wolfgang Petersen) [2016, Германия, комедия, криминал, BDRip-AVC] Dub + Sub Eng, Ger + Original Ger Galfimbul 26919626472.51 GB 0 0 1516701675

13:01

23-Янв-18

Зарубежные фильмы 2016-2018 (Новинки зарубежного кино) ·· Четверо против банка / Vier gegen die Bank (Вольфганг Петерсен / Wolfgang Petersen) [2016, Германия, комедия, криминал, BDRip] Dub (iTunes) Galfimbul 15662776321.46 GB 0 0 1515834148

12:02

13-Янв-18

Зарубежные фильмы 2016-2018 (Новинки зарубежного кино) ·· Четверо против банка / Vier gegen die Bank (Вольфганг Петерсен / Wolfgang Petersen) [2016, Германия, комедия, криминал, BDRip] Dub (iTunes) Galfimbul 781801472746 MB 0 0 1515834126

12:02

13-Янв-18

Зарубежные фильмы 2016-2018 (Новинки зарубежного кино) ·· Четверо против банка / Vier gegen die Bank (2016) BDRip-AVC от HELLYWOOD | iTunes Galfimbul 15198144661.42 GB 0 0 1515831610

11:20

13-Янв-18

Зарубежные фильмы 2016-2018 (Новинки зарубежного кино) ·· Четверо против банка / Vier gegen die Bank (Вольфганг Петерсен) [2016, комедия, криминал, BDRip 720p] DUB [iTunes] Galfimbul 52433222304.88 GB 2 0 1515663781

12:43

11-Янв-18

Зарубежные фильмы 2016-2018 (Новинки зарубежного кино) ·· Четверо против банка / Vier gegen die Bank (Вольфганг Петерсен) [2016 г., Комедия, криминал, BDRip 1080p] DUB | iTunes Galfimbul 1223203345811.39 GB 0 0 1515624609

01:50

11-Янв-18

Зарубежные фильмы 2016-2018 (Новинки зарубежного кино) ·· Четверо против банка / Vier gegen die Bank (Вольфганг Петерсен) [2016 г., Комедия, криминал, HDRip] DUB | iTunes Galfimbul 15684464641.46 GB 2 0 1515621023

00:50

11-Янв-18

Еще никто не оставлял запись к записи скачать торрент Четверо против банка Vier gegen die Bank . Будь первым!

!Обратная связь