Скачать через торрент Одаренные The Gifted Фильм бесплатно в хорошем качестве torrent

Скачивайте на UnionPeer.org фильмы через торрент без регистрации. Новинки кино в хорошем качестве через торрент. На UnionPeer.org можно скачать через торрент фильмы 2014 и 2015 годов. Самые новые фильмы.

Скачать торрент Одаренные The Gifted бесплатно через .torrent фильм мультфильм сериал

Статистика раздачи
Размер:  6.99 GB   |    Зарегистрирован:  6 лет   |    .torrent скачан:  83 раза   |   
Раздают:  1  
 

Скачать Одаренные / The Gifted / Сезон: 1 / Серии: 1-13 из 13 (Брайан Сингер) [2017, США, Фантастика, боевик, WEB-DLRip] MVO (Jaskier) + Original через torrent

 
 
Автор Сообщение

Galfimbul

avatar Galfimbul



Одаренные | The Gifted

Год выпуска: 2017
Страна: США
Жанр: Фантастика, боевик
Продолжительность: ~ 00:43:00
Перевод: Профессиональный (многоголосый закадровый) | Jaskier
Режиссёр: Брайан Сингер
В ролях: Колин Битон, Эми Акер, Стеффан Аргус, Билли Блэр, Джейсон Бремер, Пол Каревей, Эмма Дюмон, Дэйл Годбольдо и др. и другие.
Описание: В центре сюжета сериала «Одаренные» оказываются самые обычные родители, которые даже представить не могли, что их дети особенные. У детей стали проявляться необычайные способности, сверхъестественные возможности. Для кого – то они покажутся даром, но для этих людей они обернулись серьезными проблемами. Родители пребывают в страхе за жизни своих детей, они стремятся не привлекать внимание к своей семье, чтобы обезопасить детей. Правительство настроено негативно по отношению к тем, кто отличается от большинства, поэтому они обращаются к подпольной организации, в которой состоят суперлюди.

|

Качество: WEB-DLRip
Формат: AVI
Видео: XviD, ~ 1400 kbps, 720x400 (16:9), 23.976 fps
Аудио 1: MP3, 48,0 КГц, 2 ch, 128 kbps - Rus
Аудио 2: MP3, 48,0 КГц, 2 ch, 128 kbps - Eng
Субтитры: отсутствуют
Реклама: Присутствует звуковая (один раз в конце 8 сек.)
Перевод и озвучивание Студия Jaskier
Общее
Полное имя                               : E:\JASKiER\The Gifted. Season 1 (WEB-DLRip l 400p l Jaskier)\The.Gifted.S01E01.WEB-DLRip.Rus.Eng.Jaskier.avi
Формат                                   : AVI
Формат/Информация                        : Audio Video Interleave
Размер файла                             : 551 Мбайт
Продолжительность                        : 47 м. 18 с.
Общий поток                              : 1628 Кбит/сек
Программа кодирования                    : VirtualDubMod 1.5.10.3 | www.virtualdub-fr.org || (build 2550/release)
Библиотека кодирования                   : VirtualDubMod build 2550/release

Видео
Идентификатор                            : 0
Формат                                   : MPEG-4 Visual
Профиль формата                          : Advanced Simple@L5
Настройки формата                        : BVOP1
Параметр BVOP формата                    : 1
Параметр QPel формата                    : Нет
Параметр GMC формата                     : Без точки перехода
Параметр матрицы формата                 : Default (MPEG)
Идентификатор кодека                     : XVID
Идентификатор кодека/Подсказка           : XviD
Продолжительность                        : 47 м. 18 с.
Битрейт                                  : 1358 Кбит/сек
Ширина                                   : 720 пикселей
Высота                                   : 400 пикселей
Соотношение сторон                       : 16:9
Частота кадров                           : 23,976 (24000/1001) кадра/сек
Цветовое пространство                    : YUV
Субдискретизация насыщенности            : 4:2:0
Битовая глубина                          : 8 бит
Тип развёртки                            : Прогрессивная
Метод сжатия                             : С потерями
Бит/(Пиксели*Кадры)                      : 0.197
Размер потока                            : 459 Мбайт (83%)
Библиотека кодирования                   : XviD 73

Аудио #1
Идентификатор                            : 1
Формат                                   : MPEG Audio
Версия формата                           : Version 1
Профиль формата                          : Layer 3
Настройки формата                        : Joint stereo / MS Stereo
Идентификатор кодека                     : 55
Идентификатор кодека/Подсказка           : MP3
Продолжительность                        : 47 м. 18 с.
Вид битрейта                             : Постоянный
Битрейт                                  : 128 Кбит/сек
Каналы                                   : 2 канала
Частота                                  : 48,0 КГц
Метод сжатия                             : С потерями
Размер потока                            : 43,3 Мбайт (8%)
Выравнивание                             : Соединение по промежуткам
Продолжительность промежутка             : 42  мс. (1,00 видеокадр)
Время предзагрузки промежутка            : 504  мс.

Аудио #2
Идентификатор                            : 2
Формат                                   : MPEG Audio
Версия формата                           : Version 1
Профиль формата                          : Layer 3
Настройки формата                        : Joint stereo / MS Stereo
Идентификатор кодека                     : 55
Идентификатор кодека/Подсказка           : MP3
Продолжительность                        : 47 м. 18 с.
Вид битрейта                             : Постоянный
Битрейт                                  : 128 Кбит/сек
Каналы                                   : 2 канала
Частота                                  : 48,0 КГц
Метод сжатия                             : С потерями
Размер потока                            : 43,3 Мбайт (8%)
Выравнивание                             : Соединение по промежуткам
Продолжительность промежутка             : 42  мс. (1,00 видеокадр)
Время предзагрузки промежутка            : 504  мс.
Когда раздача ведётся путём добавления новых серий, при каждом добавлении создётся новый торрент. Чтобы начать докачку новой серии, пользователям необходимо сделать следующее:
(1) остановить скачивание,
(2) удалить старый торрент у себя из клиента (старые серии удалять не надо),
(3) скачать новый торрент и запустить его у себя в клиенте вместо старого, при этом указать клиенту путь в старую папку, куда и должно происходить скачивание новых серий.
Ваш клиент при этом должен произвести хеширование (проверку) старой папки (если не производит сам - помогите ему сделать это), и будет докачивать только те серии, которых у вас ещё нет. Старые серии при этом не удаляются, а продолжают раздаваться!
Eсли вы уже удалили старые серии, то предотвратить повторную закачку старых серий можно, отжав галочку в соответсвующих местах при запуске нового торрента. По возможности, желательно не удалять старые серии как можно дольше, чтобы релизёр не столько продолжал раздавать старые серии, а смог сконцентрироваться на новых.



Внимание! AdBlock блокирует показ скриншотов, все вопросы к разработчикам )))
Трекер:  [ 24-Фев-2018 16:00 ]

  

Скачать .torrent

Размер .torrent файла 36 KB


Размер: 6.99 GB
Хэш (hash) релиза: 69bbdfe5c7be772c340e1c45c2c36b44f37a2f83
Подписка на обновления:

bot

Раздача обновлена!
Перекачайте торрент-файл.

Хотите добавить комментарий к записи скачать торрент Одаренные The Gifted

!Обратная связь