Скачать через торрент Аутсайдер The Outsider Фильм бесплатно в хорошем качестве torrent

Скачивайте на UnionPeer.org фильмы через торрент без регистрации. Новинки кино в хорошем качестве через торрент. На UnionPeer.org можно скачать через торрент фильмы 2014 и 2015 годов. Самые новые фильмы.

Скачать торрент Аутсайдер The Outsider бесплатно через .torrent фильм мультфильм сериал

Статистика раздачи
Размер:  1.95 GB   |    Зарегистрирован:  6 месяцев   |    .torrent скачан:  127 раз   |   
Раздают:  1  
   
загрузка...
 
Автор Сообщение

Galfimbul

avatar Galfimbul


Аутсайдер /The Outsider

Год выхода: 2018
Жанр: Триллер, драма, криминал, детектив
Режиссер: Мартин Зандвлиет
В ролях: Джаред Лето, Таданобу Асано, Киппэй Сина, Рори Кокрейн, Эмиль Хирш, Сиори Куцуна, Юрино, Нозоми де Ланкесэ, Кодзи Като, Сотаро Ясуда и другие
О фильме:
Япония после Второй мировой войны. Американского военнопленного освобождают благодаря помощи сокамерника, принадлежащего к якудза. Став свободным, солдат начинает завоевывать их уважение и возвращает свой долг в опасном криминальном мире.



Страна: США, Linson Entertainment
Продолжительность: 02:01:28
Перевод: Любительский (двухголосый закадровый) | HiWay Grope

Файл
Кодек: MPEG-4 AVC/H.264
Качество: WEBRip 720p
Видео: 1280x536, 24.000 fps, ~1872 kbps, 0.114 bit/pixel
Звук:
Аудио rus: AC3, 48 kHz, 6 ch, 384 Kbps
Субтитры: отсутствуют

Реклама: присутствует

Семпл
General
Unique ID : 203062775459409121905425119863416382366 (0x98C477CDD97FF403B1A21B025909639E)
Complete name : E:The.Outsider.2018.720p.WEBRip.HiWayGropeThe.Outsider.2018.720p.WEBRip.HiWayGrope.mkv
Format : Matroska
Format version : Version 4 / Version 2
File size : 1.95 GiB
Duration : 2h 1mn
Overall bit rate : 2 302 Kbps
Encoded date : UTC 2018-03-13 14:06:43
Writing application : mkvmerge v18.0.0 ('Apricity') 64-bit
Writing library : libebml v1.3.5 + libmatroska v1.4.8

Video
ID : 1
Format : AVC
Format/Info : Advanced Video Codec
Format profile : Main@L4.1
Format settings, CABAC : Yes
Format settings, ReFrames : 4 frames
Codec ID : V_MPEG4/ISO/AVC
Duration : 2h 1mn
Bit rate : 1 872 Kbps
Width : 1 280 pixels
Height : 536 pixels
Display aspect ratio : 2.40:1
Frame rate mode : Constant
Frame rate : 24.000 fps
Color space : YUV
Chroma subsampling : 4:2:0
Bit depth : 8 bits
Scan type : Progressive
Bits/(Pixel*Frame) : 0.114
Stream size : 1.59 GiB (81%)
Language : English
Default : Yes
Forced : No
Color range : Limited
Color primaries : BT.601 NTSC
Transfer characteristics : BT.601
Matrix coefficients : BT.601

Audio
ID : 2
Format : AC-3
Format/Info : Audio Coding 3
Mode extension : CM (complete main)
Format settings, Endianness : Big
Codec ID : A_AC3
Duration : 2h 1mn
Bit rate mode : Constant
Bit rate : 384 Kbps
Channel(s) : 6 channels
Channel positions : Front: L C R, Side: L R, LFE
Sampling rate : 48.0 KHz
Frame rate : 31.250 fps (1536 spf)
Compression mode : Lossy
Stream size : 334 MiB (17%)
Title : rus
Language : Russian
Default : Yes
Forced : No
Релиз от: HiWay Grope
Источник http://arutor.org

Трекер:  [ 13-Мар-2018 17:50 ]

  

Скачать .torrent

Размер .torrent файла 20 KB


Размер: 1.95 GB
Хэш (hash) релиза: 2ff8af11b22401d0690c37dc26af06c6b5adeb51
Подписка на обновления:

Торренты, похожие на Аутсайдер The Outsider скачать торрент

Форум Название Автор Размер S L Добавлен
Зарубежные фильмы 2016-2018 (Новинки зарубежного кино) ·· Аутсайдер / The Outsider (Мартин Зандвлиет) [2018 г., триллер, драма, криминал, детектив, WEBRip] Jaskier Galfimbul 15358443521.43 GB 0 0 1528576859

23:40

9-Июн-18

Зарубежные фильмы 2016-2018 (Новинки зарубежного кино) ·· Аутсайдер / The Outsider (Мартин Зандвлиет) [2018 г., триллер, драма, криминал, детектив, WEBRip 720p] Jaskier Galfimbul 15768003631.47 GB 0 0 1528572775

22:32

9-Июн-18

Зарубежные фильмы 2016-2018 (Новинки зарубежного кино) ·· Аутсайдер / The Outsider (Мартин Зандвлиет) [2018 г., триллер, драма, криминал, детектив, WEBRip 1080p] NewStudio Galfimbul 29515411592.75 GB 0 0 1523809827

19:30

15-Апр-18

Зарубежные фильмы 2016-2018 (Новинки зарубежного кино) ·· Аутсайдер / The Outsider (Мартин Зандвлиет) [2018 г., триллер, драма, криминал, детектив, WEB-DL 1080p] DUB | Чистый звук Galfimbul 50140134434.67 GB 0 0 1522225358

11:22

28-Мар-18

Зарубежные фильмы 2016-2018 (Новинки зарубежного кино) ·· Аутсайдер / The Outsider (Мартин Зандвлиет) [2018 г., триллер, драма, криминал, детектив, WEB-DL 720p] DUB | Чистый звук Galfimbul 45930327074.28 GB 0 0 1522225358

11:22

28-Мар-18

Зарубежные фильмы 2016-2018 (Новинки зарубежного кино) ·· Аутсайдер / The Outsider (Мартин Зандвлиет) [2018 г., триллер, драма, криминал, детектив, WEB-DLRip] DUB | Чистый звук Galfimbul 22038835202.05 GB 0 0 1522225357

11:22

28-Мар-18

Зарубежные фильмы 2016-2018 (Новинки зарубежного кино) ·· Аутсайдер / The Outsider (Мартин Зандвлиет) [2018 г., триллер, драма, криминал, детектив, WEB-DLRip] DUB | Чистый звук Galfimbul 14654013441.36 GB 0 0 1522225356

11:22

28-Мар-18

Зарубежные фильмы 2016-2018 (Новинки зарубежного кино) ·· Аутсайдер / The Outsider (Мартин Зандвлиет) [2018, Триллер, драма, криминал, детектив, WEBRip] NewStudio Galfimbul 14687334731.37 GB 0 0 1521382211

17:10

18-Мар-18

Зарубежные фильмы 2016-2018 (Новинки зарубежного кино) ·· Аутсайдер / The Outsider (Мартин Зандвлиет) [2018, Триллер, драма, криминал, детектив, WEBRip 720p] NewStudio Galfimbul 30684098362.86 GB 0 0 1521371423

14:10

18-Мар-18

Зарубежные фильмы 2016-2018 (Новинки зарубежного кино) ·· Аутсайдер / The Outsider (Мартин Зандвлиет) [2018, Триллер, драма, криминал, детектив, WEBRip 1080p] Galfimbul 28067598752.61 GB 0 0 1520832606

08:30

12-Мар-18

Зарубежные фильмы до 2016 ·· Изгои / Аутсайдеры / The Outsiders (Френсис Форд Коппола / Francis Ford Coppola) [1983, США, драма, криминал, BDRip] [Collector's Edition] MVO (ОРТ) Galfimbul 15661854721.46 GB 0 0 1378804471

12:14

10-Сен-13

Зарубежные фильмы до 2016 ·· Изгои / Аутсайдеры / The Outsiders (Фрэнсис Форд Коппола / Francis Ford Coppola) [1983 г., драма, криминал, BDRip] Dub L 15661854721.46 GB 0 0 1364846616

23:03

1-Апр-13

Зарубежные фильмы до 2016 ·· Изгои / Аутсайдеры / The Outsiders (Фрэнсис Форд Коппола / Francis Ford Coppola) [1983, США, драма, мелодрама, криминал, HDRip] [Collector Edition] VO (Максим Логинофф) Galfimbul 15728312321.46 GB 0 0 1364817367

14:56

1-Апр-13

Зарубежные фильмы до 2016 ·· Изгои / Аутсайдеры / The Outsiders (Френсис Форд Коппола / Francis Ford Coppola) [1983 г., драма, мелодрама, криминал, HDRip] [Collector Edition] AVO (Гаврилов) Galfimbul 782465024746 MB 0 0 1322897664

10:34

3-Дек-11

Еще никто не оставлял запись к записи скачать торрент Аутсайдер The Outsider . Будь первым!

!Обратная связь