Скачать через торрент Когда стемнеет Dao khanong Фильм бесплатно в хорошем качестве torrent

Скачивайте на UnionPeer.org фильмы через торрент без регистрации. Новинки кино в хорошем качестве через торрент. На UnionPeer.org можно скачать через торрент фильмы 2014 и 2015 годов. Самые новые фильмы.

Скачать торрент Когда стемнеет Dao khanong бесплатно через .torrent фильм мультфильм сериал

Статистика раздачи
Размер:  1.2 GB   |    Зарегистрирован:  6 месяцев   |    .torrent скачан:  32 раза   |   
Раздают:  1  
   
загрузка...
 
Автор Сообщение

Galfimbul

avatar Galfimbul


Год выхода 2016
Наименование: Когда стемнеет
Оригинальное наименование: Dao khanong
Произведено: Таиланд, Франция, Катар, Нидерланды
Категория: драма
Режиссер постановщик: Аноча Сувичакорнпонг
В главных ролях: Арак Аморнсупасири, Апиня Сакуляроенсук, Висра Вишит-Вадакан

О фильме: Душещипательная тайская драма, события которой произошли в 1976 году. 6 октября Таммасатский университет стал центром серьёзных государственных перемен. Государственный строй, установленный в стране, полностью перевернулся всего за один день. А всё началось с того, что на левых студентов было совершенно нападение прямо в стенах учебного заведения. В качестве нападавших числились молодые люди с ультраправыми взглядами и полиция. Особенно примечателен тот факт, что именно стражи правопорядка выступили в качестве тех, кто совершил этот акт насилия, что по понятным причинам было совершенно недопустимо.
До сих пор идут споры относительно того, сколько человек стали жертвами схватки. Но все сходятся в том, что пострадало никак не меньше нескольких десятков человек. Резня в университете спровоцировала государственный переворот. Во главе государства встало правительство, которое установило в стране правоавторитарный режим. Таиландом был кардинально изменён его привычный политический курс. Коммунизм прекратил своё триумфальное шествие по ближайшим странам. Но каковы были основные причины этого конфликта? И возможно ли было избежать такого количества убитых и раненых при смене государственной власти? Именно на этот вопрос пытаются ответить создатели киноленты.



Файл
Качество: WEBRip 720p
Видео данные: MKV, 1120x608 (1.85:1), 23.976 fps, 1414 Кбит/с
Аудио данные: AC3, 2 ch, 192 Кбит/с
Перевод: Любительский многоголосый (GreenРай Studio)
Субтитры: Английские [хардсаб]
Продолжительность: 01:46:30
General
Unique ID : 53471504444529984474768004312050277706 (0x283A3CB664EE411F607D6C9E04E19D4A)
Complete name : D:ГРИНРАЙDao.khanong.2016.P.WEBRip.720p.mkv
Format : Matroska
Format version : Version 4 / Version 2
File size : 1.20 GiB
Duration : 1 h 46 min
Overall bit rate : 1 608 kb/s
Encoded date : UTC 2018-03-13 11:54:38
Writing application : mkvmerge v21.0.0 ('Tardigrades Will Inherit The Earth') 64-bit
Writing library : libebml v1.3.5 + libmatroska v1.4.8

Video
ID : 1
Format : AVC
Format/Info : Advanced Video Codec
Format profile : High@L4
Format settings : CABAC / 5 Ref Frames
Format settings, CABAC : Yes
Format settings, RefFrames : 5 frames
Codec ID : V_MPEG4/ISO/AVC
Duration : 1 h 46 min
Bit rate : 1 414 kb/s
Width : 1 120 pixels
Height : 608 pixels
Display aspect ratio : 1.85:1
Frame rate mode : Constant
Frame rate : 23.976 (24000/1001) FPS
Color space : YUV
Chroma subsampling : 4:2:0
Bit depth : 8 bits
Scan type : Progressive
Bits/(Pixel*Frame) : 0.087
Stream size : 1.05 GiB (88%)
Writing library : x264 core 152 r2851bm ba24899
Encoding settings : cabac=1 / ref=5 / deblock=1:-1:-1 / analyse=0x3:0x113 / me=hex / subme=8 / psy=1 / psy_rd=1.00:0.15 / mixed_ref=1 / me_range=16 / chroma_me=1 / trellis=2 / 8x8dct=1 / cqm=0 / deadzone=21,11 / fast_pskip=1 / chroma_qp_offset=-3 / threads=8 / lookahead_threads=8 / sliced_threads=1 / slices=8 / nr=0 / decimate=1 / interlaced=0 / bluray_compat=0 / constrained_intra=0 / bframes=3 / b_pyramid=2 / b_adapt=1 / b_bias=0 / direct=3 / weightb=1 / open_gop=0 / weightp=2 / keyint=250 / keyint_min=23 / scenecut=40 / intra_refresh=0 / rc_lookahead=0 / rc=crf / mbtree=0 / crf=21.0 / qcomp=0.60 / qpmin=0 / qpmax=69 / qpstep=4 / vbv_maxrate=5000 / vbv_bufsize=10000 / crf_max=0.0 / nal_hrd=none / filler=0 / ip_ratio=1.40 / pb_ratio=1.30 / aq=1:1.00
Default : Yes
Forced : No

Audio
ID : 2
Format : AC-3
Format/Info : Audio Coding 3
Codec ID : A_AC3
Duration : 1 h 46 min
Bit rate mode : Constant
Bit rate : 192 kb/s
Channel(s) : 2 channels
Channel positions : Front: L R
Sampling rate : 48.0 kHz
Frame rate : 31.250 FPS (1536 SPF)
Bit depth : 16 bits
Compression mode : Lossy
Stream size : 146 MiB (12%)
Service kind : Complete Main
Default : Yes
Forced : No
Внимание, имеется видео и аудио реклама от спонсора показа Над релизом работали:
Состав дикторов: Руслан Чериев, Мария Морошкина, Дмитрий Коляденко
Руководитель проекта и координатор: Евгений Овчаренко
Организатор и координатор: Никита Марков
Пиар менеджер студии: Игорь Обухов
Техническая поддержка: Александр Методий

Релиз от:
Источник http://arutor.org

Трекер:  [ 13-Мар-2018 19:10 ]

  

Скачать .torrent

Размер .torrent файла 12 KB


Размер: 1.2 GB
Хэш (hash) релиза: bc08ce57bb0ac302d8403ff30a717b358c9ef8fa
Подписка на обновления:

Торренты, похожие на Когда стемнеет Dao khanong скачать торрент

Форум Название Автор Размер S L Добавлен
Зарубежные фильмы 2016-2018 (Новинки зарубежного кино) ·· Когда стемнеет / Dao khanong (Аноча Сувичакорнпонг) [2016, драма, WEBRip] GreenРай Studio Galfimbul 19976522981.86 GB 0 0 1520957416

19:10

13-Мар-18

Еще никто не оставлял запись к записи скачать торрент Когда стемнеет Dao khanong . Будь первым!

!Обратная связь