Скачать через торрент Направления Посоки Фильм бесплатно в хорошем качестве torrent

Скачивайте на UnionPeer.org фильмы через торрент без регистрации. Новинки кино в хорошем качестве через торрент. На UnionPeer.org можно скачать через торрент фильмы 2014 и 2015 годов. Самые новые фильмы.

Скачать торрент Направления Посоки бесплатно через .torrent фильм мультфильм сериал

Статистика раздачи
Размер:  1 GB   |    Зарегистрирован:  3 месяца 5 дней   |    .torrent скачан:  46 раз   |   
Раздают:  1  
   
загрузка...
 
Автор Сообщение

Galfimbul

avatar Galfimbul


Направления /Посоки / Posoki / Directions

Год выхода: 2017
Жанр: драма, роуд-муви
Режиссер: Стефан Командарев
В ролях: Васил Василев, Анна Командарева, Иван Бырнев, Емил Спахийски, Борислава Стратиева, Георги Кадурин, Асен Блатечки, Добрин Досев, Герасим Георгиев, Ирини Жамбонас, Васил Банов, Юлиян Вергов

О фильме:
Двадцать четыре часа и шесть историй из жизни таксистов. Одна из историй снята по рассказу А.П. Чехова "Тоска".

Страна: Болгария, Германия, Македония
Студия: Argo Film, Aktis Film Production , Sektor Film Skopje, Digital Images
Продолжительность: 01:39:15
Перевод: Субтитры Professor

Файл
Кодек: х.264
Качество: DVDRip
Видео: 720x304, 2.35:1, 25.000 fps, 1126 kbps
Звук: AAC, 48.0 kHz, 320 kb/s, 6 channels
Субтитры: Русские ass
General
Unique ID : 262544241319610085633427834851114111953 (0xC5842E7DE320FD540878C1B88E9453D1)
Complete name : Posoki.2017.DVDRip.mkv
Format : Matroska
Format version : Version 4 / Version 2
File size : 1.00 GiB
Duration : 1 h 39 min
Overall bit rate : 1 447 kb/s
Movie name : Directions.2017.DVDRip.x264-REFLUX
Encoded date : UTC 2018-03-13 13:25:10
Writing application : mkvmerge v15.0.0 ('Duel with the Devil') 64-bit
Writing library : libebml v1.3.5 + libmatroska v1.4.5

Video
ID : 1
Format : AVC
Format/Info : Advanced Video Codec
Format profile : High@L4.1
Format settings, CABAC : Yes
Format settings, RefFrames : 5 frames
Codec ID : V_MPEG4/ISO/AVC
Duration : 1 h 39 min
Bit rate : 1 126 kb/s
Width : 720 pixels
Height : 304 pixels
Display aspect ratio : 2.35:1
Frame rate mode : Constant
Frame rate : 25.000 FPS
Color space : YUV
Chroma subsampling : 4:2:0
Bit depth : 8 bits
Scan type : Progressive
Bits/(Pixel*Frame) : 0.206
Stream size : 799 MiB (78%)
Writing library : x264 core 148 r2638 7599210
Encoding settings : cabac=1 / ref=5 / deblock=1:-3:-3 / analyse=0x3:0x113 / me=esa / subme=9 / psy=1 / psy_rd=1.00:0.00 / mixed_ref=1 / me_range=16 / chroma_me=1 / trellis=1 / 8x8dct=1 / cqm=0 / deadzone=21,11 / fast_pskip=1 / chroma_qp_offset=-2 / threads=3 / lookahead_threads=1 / sliced_threads=0 / nr=0 / decimate=1 / interlaced=0 / bluray_compat=0 / constrained_intra=0 / bframes=3 / b_pyramid=2 / b_adapt=1 / b_bias=0 / direct=1 / weightb=1 / open_gop=0 / weightp=2 / keyint=250 / keyint_min=25 / scenecut=40 / intra_refresh=0 / rc_lookahead=40 / rc=2pass / mbtree=1 / bitrate=1126 / ratetol=1.0 / qcomp=0.60 / qpmin=10 / qpmax=51 / qpstep=4 / cplxblur=20.0 / qblur=0.5 / vbv_maxrate=50000 / vbv_bufsize=50000 / nal_hrd=none / filler=0 / ip_ratio=1.40 / aq=1:1.00
Language : Bulgarian
Default : Yes
Forced : No

Audio
ID : 2
Format : AAC
Format/Info : Advanced Audio Codec
Format profile : LC
Codec ID : A_AAC
Duration : 1 h 39 min
Bit rate : 320 kb/s
Channel(s) : 6 channels
Channel positions : Front: L C R, Side: L R, LFE
Sampling rate : 48.0 kHz
Frame rate : 46.875 FPS (1024 SPF)
Compression mode : Lossy
Delay relative to video : 9 ms
Stream size : 227 MiB (22%)
Language : Bulgarian
Default : Yes
Forced : No

Text
ID : 3
Format : ASS
Codec ID : S_TEXT/ASS
Codec ID/Info : Advanced Sub Station Alpha
Duration : 1 h 35 min
Bit rate : 127 b/s
Count of elements : 1002
Compression mode : Lossless
Stream size : 88.5 KiB (0%)
Language : Russian
Default : Yes
Forced : No
Источник http://arutor.org

Трекер:  [ 13-Мар-2018 19:50 ]

  

Скачать .torrent

Размер .torrent файла 20 KB


Размер: 1 GB
Хэш (hash) релиза: a8b657d2cfd34bb40c74b1dd20d8b6a240024684
Подписка на обновления:

Еще никто не оставлял запись к записи скачать торрент Направления Посоки . Будь первым!

!Обратная связь