Скачать через торрент Карп отмороженный Фильм бесплатно в хорошем качестве torrent

Скачивайте на UnionPeer.org фильмы через торрент без регистрации. Новинки кино в хорошем качестве через торрент. На UnionPeer.org можно скачать через торрент фильмы 2014 и 2015 годов. Самые новые фильмы.

Скачать торрент Карп отмороженный бесплатно через .torrent фильм мультфильм сериал

Статистика раздачи
Размер:  2.18 GB   |    Зарегистрирован:  1 год 5 месяцев   |    .torrent скачан:  73 раза   |   
Раздают:  1  
   
загрузка...
 
Автор Сообщение

Galfimbul

avatar Galfimbul


Карп отмороженный

«Пришло время оттаять»
Жанр: комедия, драма
Год выпуска: 2017
Продолжительность: 01:39:36
Навигация по главам: есть

Режиссер: Владимир Котт

В ролях: Марина Неёлова (Елена Михайловна), Алиса Фрейндлих (Людмила), Евгений Миронов (Олег), Сергей Пускепалис (Сергей Анисимов), Александр Баширов, Наталья Суркова (Галина Дорменеева), Татьяна Рассказова (Фаина Павловна), Антон Шпиньков (Пашка), Артем Лещик (Валерка), Анна Екатерининская (Кристина), Константин Шелестун (ветеринар), Александр Безруков (кардиолог)

Описание: Елена Михайловна скромно живёт на пенсии в провинциальном городке. Неожиданно для себя она узнаёт о смертельном диагнозе, который может в любой момент оборвать её жизнь. Чтобы лишний раз не тревожить любимого, но постоянно занятого сына, работающего в большом городе бизнес-тренером, и избавить его от потенциальных забот, Елена Михайловна берет дело в свои руки и принимается активно хлопотать над организацией собственных похорон.
<img class="smile" src="//static.t-ru.org/smiles/icon_arrow.gif" alt="">
Качество: BDRip-AVC (исходник - Blu-ray|Karp otmorojennyi-BLUEBIRD)
Формат видео: MKV

Видео: x264, 1152x622 (1.85:1) 24 fps, ~2620 kbps, 0.152 bit/pixel
Аудио: 48 kHz, AC3 Dolby Digital, 5.1 (Front: L C R, Side: L R, LFE) ch, ~448 kbps
Format : Matroska
Format version : Version 4 / Version 2
File size : 2.18 GiB
Duration : 1 h 39 min
Overall bit rate : 3 131 kb/s
Movie name : Карп отмороженный (2017) :: AFM ::
Encoded date : UTC 2018-03-22 18:50:41
Writing application : mkvmerge v8.3.0 ('Over the Horizon') 32bit
Writing library : libebml v1.3.1 + libmatroska v1.4.2

Video
ID : 1
Format : AVC
Format/Info : Advanced Video Codec
Format profile : High@L4.1
Format settings, CABAC : Yes
Format settings, ReFrames : 11 frames
Codec ID : V_MPEG4/ISO/AVC
Duration : 1 h 39 min
Bit rate : 2 620 kb/s
Width : 1 152 pixels
Height : 622 pixels
Display aspect ratio : 1.85:1
Frame rate mode : Constant
Frame rate : 24.000 FPS
Color space : YUV
Chroma subsampling : 4:2:0
Bit depth : 8 bits
Scan type : Progressive
Bits/(Pixel*Frame) : 0.152
Stream size : 1.82 GiB (84%)
Title : BDRip by AFM
Writing library : x264 core 152 r2851+45 9658d1a 7mod [8-bit@all X86_64]
Encoding settings : cabac=1 / ref=11 / deblock=1:-3:-2 / analyse=0x3:0x133 / me=umh / subme=10 / psy=1 / fade_compensate=0.00 / psy_rd=1.00:0.00 / mixed_ref=1 / me_range=32 / chroma_me=0 / trellis=2 / 8x8dct=1 / cqm=0 / deadzone=21,11 / fast_pskip=0 / chroma_qp_offset=-2 / threads=6 / lookahead_threads=1 / sliced_threads=0 / nr=0 / decimate=1 / interlaced=0 / bluray_compat=0 / constrained_intra=0 / fgo=0 / bframes=14 / b_pyramid=2 / b_adapt=2 / b_bias=0 / direct=1 / weightb=1 / open_gop=0 / weightp=2 / keyint=240 / keyint_min=23 / scenecut=40 / intra_refresh=0 / rc_lookahead=90 / rc=crf / mbtree=0 / crf=18.9000 / qcomp=0.65 / qpmin=0:0:0 / qpmax=69:69:69 / qpstep=4 / vbv_maxrate=50000 / vbv_bufsize=62500 / crf_max=0.0 / nal_hrd=none / filler=0 / ip_ratio=1.35 / pb_ratio=1.30 / aq=3:0.80 / aq-sensitivity=10.00 / aq-factor=1.00:1.00:1.00 / aq2=0 / aq3=0 / zones=139797,143446,q=30
Language : English
Default : Yes
Forced : No

Audio
ID : 2
Format : AC-3
Format/Info : Audio Coding 3
Mode extension : CM (complete main)
Format settings, Endianness : Big
Codec ID : A_AC3
Duration : 1 h 39 min
Bit rate mode : Constant
Bit rate : 448 kb/s
Channel(s) : 6 channels
Channel positions : Front: L C R, Side: L R, LFE
Sampling rate : 48.0 kHz
Frame rate : 31.250 FPS (1536 spf)
Compression mode : Lossy
Stream size : 319 MiB (14%)
Title : AC3 5.1 ~448 kbps
Language : Russian
Default : Yes
Forced : No

Menu
00:00:00.000 : ru:Chapter 1
00:00:55.708 : ru:Chapter 2
00:12:09.250 : ru:Chapter 3
00:25:12.541 : ru:Chapter 4
00:40:39.625 : ru:Chapter 5
00:57:14.125 : ru:Chapter 6
01:07:31.458 : ru:Chapter 7
01:16:24.625 : ru:Chapter 8
01:26:21.958 : ru:Chapter 9
<div class="sp-wrap">
<div class="sp-head folded">x264</div>
<div class="sp-body">x264 [info]: frame I:927 Avg QP:18.09 size: 79810
x264 [info]: frame P:30273 Avg QP:19.15 size: 31559
x264 [info]: frame B:112246 Avg QP:21.36 size: 8673
x264 [info]: consecutive B-frames: 1.5% 2.0% 5.8% 25.2% 22.4% 28.9% 7.6% 1.8% 2.1% 0.6% 0.4% 0.3% 0.5% 0.4% 0.5%
x264 [info]: mb I I16..4: 5.6% 81.8% 12.7%
x264 [info]: mb P I16..4: 1.2% 12.6% 1.6% P16..4: 42.4% 19.8% 14.9% 0.5% 0.2% skip: 6.8%
x264 [info]: mb B I16..4: 0.1% 1.0% 0.2% B16..8: 35.7% 8.6% 2.2% direct: 6.0% skip:46.3% L0:40.1% L1:44.7% BI:15.2%
x264 [info]: 8x8 transform intra:80.8% inter:68.5%
x264 [info]: coded y,uvDC,uvAC intra: 84.8% 83.0% 57.3% inter: 20.9% 20.9% 4.8%
x264 [info]: i16 v,h,dc,p: 27% 14% 6% 53%
x264 [info]: i8 v,h,dc,ddl,ddr,vr,hd,vl,hu: 12% 10% 6% 9% 13% 13% 13% 12% 13%
x264 [info]: i4 v,h,dc,ddl,ddr,vr,hd,vl,hu: 11% 8% 3% 8% 16% 15% 14% 11% 13%
x264 [info]: i8c dc,h,v,p: 42% 21% 19% 17%
x264 [info]: Weighted P-Frames: Y:97.8% UV:1.7%
x264 [info]: ref P L0: 48.7% 13.9% 15.2% 5.0% 4.7% 3.2% 3.2% 1.6% 1.7% 1.3% 1.5% 0.1% 0.0%
x264 [info]: ref B L0: 78.4% 8.9% 4.5% 2.3% 1.7% 1.5% 1.2% 0.8% 0.5% 0.3%
x264 [info]: ref B L1: 95.6% 4.4%
x264 [info]: kb/s:2680.89
</div>
</div>
<div class="sp-wrap">
<div class="sp-head folded">с названием</div>
<div class="sp-body">
</div>
</div>

Трекер:  [ 22-Мар-2018 22:24 ]

  

Скачать .torrent

Размер .torrent файла 11 KB


Размер: 2.18 GB
Хэш (hash) релиза: 9e73a771667291e4c99b76c3606a99085e2bdd0b
Подписка на обновления:

Торренты, похожие на Карп отмороженный скачать торрент

Форум Название Автор Размер S L Добавлен
Российские фильмы до 2016 ·· Карп отмороженный (Владимир Котт) [2017, комедия, драма, BDRip] Galfimbul 15711580161.46 GB 0 0 1521901454

17:24

24-Мар-18

Российские фильмы 2016-2018 (Новинки русского кино) ·· Карп отмороженный (Владимир Котт) [2017 г., комедия, драма, Blu-Ray 1080p] Rus Transfer | Лицензия Galfimbul 1833619415617.08 GB 0 0 1521637821

16:10

21-Мар-18

Российские фильмы до 2016 ·· Карп отмороженный (Владимир Котт) [2017, Россия, комедия, драма, BDRip 1080p] Original Rus Galfimbul 86932025338.1 GB 0 0 1521072089

03:01

15-Мар-18

Российские фильмы 2016-2018 (Новинки русского кино) ·· Карп отмороженный (Владимир Котт) [2017 г., комедия, драма, HDRip] | Лицензия Galfimbul 15646494721.46 GB 0 0 1521009494

09:38

14-Мар-18

Российские фильмы 2016-2018 (Новинки русского кино) ·· Карп отмороженный (Владимир Котт) [2017 г., комедия, драма, HDRip] Лицензия Galfimbul 15701012481.46 GB 0 0 1520981444

01:50

14-Мар-18

Российские фильмы 2016-2018 (Новинки русского кино) ·· Карп отмороженный (Владимир Котт) [2017, Россия, комедия, драма, BDRip 1080p] Лицензия Galfimbul 98414389689.17 GB 2 0 1520967078

21:51

13-Мар-18

Российские фильмы 2016-2018 (Новинки русского кино) ·· Карп отмороженный (Владимир Котт) [2017, Россия, комедия, драма, BDRip 720p] Лицензия Galfimbul 61081501185.69 GB 0 0 1520967064

21:51

13-Мар-18

Российские фильмы до 2016 ·· Карп отмороженный (Владимир Котт) [2017, Россия, комедия, драма, WEB-DLRip] Galfimbul 781185024745 MB 0 0 1519093674

05:27

20-Фев-18

Российские фильмы до 2016 ·· Карп отмороженный (Владимир Котт) [2017, Россия, комедия, драма, WEB-DL 720p] Original Rus Galfimbul 32818210863.06 GB 0 0 1519086831

03:33

20-Фев-18

Российские фильмы до 2016 ·· Карп отмороженный (Владимир Котт) [2017, Россия, комедия, драма, WEB-DL 1080p] Original Rus Galfimbul 41235793463.84 GB 0 0 1519086823

03:33

20-Фев-18

Российские фильмы 2016-2018 (Новинки русского кино) ·· Карп отмороженный (Владимир Котт) [2017, Россия, комедия, драма, WEB-DLRip] iTunes Galfimbul 15679754241.46 GB 2 0 1519059036

19:50

19-Фев-18

Российские фильмы до 2016 ·· Карп отмороженный (Владимир Котт) [2017, Россия, комедия, драма, WEB-DLRip] Galfimbul 15693168641.46 GB 0 0 1519055893

18:58

19-Фев-18

Российские фильмы 2016-2018 (Новинки русского кино) ·· Карп отмороженный (Владимир Котт) [2017, Россия, комедия, драма, WEB-DL 1080p] iTunes Galfimbul 41235793463.84 GB 0 0 1519054824

18:40

19-Фев-18

Российские фильмы 2016-2018 (Новинки русского кино) ·· Карп отмороженный (Владимир Котт) [2017, Комедия, драма, WEB-DLRip] iTunes Galfimbul 14743777281.37 GB 0 0 1519052424

18:00

19-Фев-18

Российские фильмы 2016-2018 (Новинки русского кино) ·· Карп отмороженный (Владимир Котт) [2017, Комедия, драма, WEB-DL 720p] iTunes Galfimbul 32818210863.06 GB 0 0 1519042815

15:20

19-Фев-18

Еще никто не оставлял запись к записи скачать торрент Карп отмороженный . Будь первым!

!Обратная связь