Скачать через торрент Чёртов Берлин Fucking Berlin Фильм бесплатно в хорошем качестве torrent

Скачивайте на UnionPeer.org фильмы через торрент без регистрации. Новинки кино в хорошем качестве через торрент. На UnionPeer.org можно скачать через торрент фильмы 2014 и 2015 годов. Самые новые фильмы.

Скачать торрент Чёртов Берлин Fucking Berlin бесплатно через .torrent фильм мультфильм сериал

Статистика раздачи
Размер:  7.03 GB   |    Зарегистрирован:  5 лет 10 месяцев   |    .torrent скачан:  154 раза   |   
Раздают:  1  
 

Скачать Чёртов Берлин / Fucking Berlin (Флориан Готтшик) [2016, драма, мелодрама, HDRip 1080p] GreenРай Studio через torrent

 
 
Автор Сообщение

Galfimbul

avatar Galfimbul


Год выхода: 2016
Наименование: Чёртов Берлин
Оригинальное наименование: Fucking Berlin
Произведено: Германия
Жанр: драма, мелодрама
Режиссер постановщик: Флориан Готтшик
В главных ролях: Рудольф Мартин, Свенья Юнг, Кристоф Летковски, Пол Бохе, Валера Канищев, Константин Люке, Ойген Баудер, Михаэль Кинд, Кристин Николс, Чарли Энн Шмульцер

О фильме: «Берлин - это не город, Берлин - это ритм. Если твой ритм не совпадет с ритмом этого города, ты пропадёшь». Молодая студентка Соня пытается следовать этому правилу. Она приехала покорять Берлин, но скорее Берлин подчинил её себе. Учиться в Берлинском университете - её цель, а средство для достижения этой цели - бордель «Оазис».



Файл
Качество: HDRip 1080p
Видео данные: MKV, 1920x1080 (16:9), 23.976 fps, 9831 Кбит/с
Аудио данные: AAC, 2 ch, 125 Кбит/с
Перевод: Любительский многоголосый (GreenРай Studio)
Продолжительность: 01:40:59
General
Unique ID : 263181545836526234786334578514136461797 (0xC5FEEC07C6EE804F250E9232E9DCF1E5)
Complete name : D:ГРИНРАЙFucking.Berlin.2016.P.BDRip.1080p.mkv
Format : Matroska
Format version : Version 4 / Version 2
File size : 7.03 GiB
Duration : 1 h 40 min
Overall bit rate : 9 959 kb/s
Encoded date : UTC 2018-03-27 16:39:36
Writing application : mkvmerge v21.0.0 ('Tardigrades Will Inherit The Earth') 64-bit
Writing library : libebml v1.3.5 + libmatroska v1.4.8

Video
ID : 1
Format : AVC
Format/Info : Advanced Video Codec
Format profile : High@L4
Format settings : CABAC / 1 Ref Frames
Format settings, CABAC : Yes
Format settings, RefFrames : 1 frame
Format settings, GOP : M=1, N=30
Codec ID : V_MPEG4/ISO/AVC
Duration : 1 h 40 min
Bit rate : 9 831 kb/s
Width : 1 920 pixels
Height : 1 080 pixels
Display aspect ratio : 16:9
Frame rate mode : Constant
Frame rate : 23.976 (24000/1001) FPS
Color space : YUV
Chroma subsampling : 4:2:0
Bit depth : 8 bits
Scan type : Progressive
Bits/(Pixel*Frame) : 0.198
Stream size : 6.94 GiB (99%)
Language : English
Default : Yes
Forced : No

Audio
ID : 2
Format : AAC
Format/Info : Advanced Audio Codec
Format profile : LC
Codec ID : A_AAC-2
Duration : 1 h 40 min
Bit rate : 125 kb/s
Channel(s) : 2 channels
Channel positions : Front: L R
Sampling rate : 48.0 kHz
Frame rate : 46.875 FPS (1024 SPF)
Compression mode : Lossy
Stream size : 90.6 MiB (1%)
Language : English
Default : Yes
Forced : No
Внимание, имеется видео и аудио реклама от спонсора показа Релиз от:
Источник http://blator.org

Внимание! AdBlock блокирует показ скриншотов, все вопросы к разработчикам )))
Трекер:  [ 28-Мар-2018 21:40 ]

  

Скачать .torrent

Размер .torrent файла 18 KB


Размер: 7.03 GB
Хэш (hash) релиза: 05866609b2e73710e9c7a4e843a1c6d34a650a02
Подписка на обновления:

Торренты, похожие на Чёртов Берлин Fucking Berlin скачать торрент

Форум Название Автор Размер S L Добавлен
Зарубежные фильмы 2016-2019 (Новинки зарубежного кино) ·· Чёртов Берлин / Fucking Berlin (Флориан Готтшик) [2016, драма, мелодрама, HDRip] GreenРай Studio Galfimbul 14688931841.37 GB 0 0 1522262472

21:41

28-Мар-18

Зарубежные фильмы 2016-2019 (Новинки зарубежного кино) ·· Чёртов Берлин / Fucking Berlin (Флориан Готтшик) [2016, драма, мелодрама, HDRip 720p] GreenРай Studio Galfimbul 16244451731.51 GB 0 0 1522262459

21:40

28-Мар-18

Зарубежные фильмы 2016-2019 (Новинки зарубежного кино) ·· Чёртов Берлин / Fucking Berlin (Флориан Готтшик) [2016, драма, мелодрама, BDRip 1080p] Galfimbul 97811498099.11 GB 0 0 1481404320

00:12

11-Дек-16

Зарубежные фильмы 2016-2019 (Новинки зарубежного кино) ·· Чёртов Берлин / Fucking Berlin (Флориан Готтшик) [2016, драма, мелодрама, HDRip] Galfimbul 15609794561.45 GB 0 0 1481267598

10:13

9-Дек-16

Зарубежные фильмы 2016-2019 (Новинки зарубежного кино) ·· Чёртов Берлин / Fucking Berlin (Флориан Готтшик) [2016, драма, мелодрама, BDRip 720p] Galfimbul 49893760774.65 GB 0 0 1481267534

10:12

9-Дек-16

Зарубежные фильмы 2016-2019 (Новинки зарубежного кино) ·· Чёртов Берлин / Fucking Berlin (Флориан Готтшик) [2016, драма, мелодрама, WEB-DLRip] Sub Galfimbul 15625277441.46 GB 0 0 1480770989

16:16

3-Дек-16

Еще никто не оставлял запись к записи скачать торрент Чёртов Берлин Fucking Berlin . Будь первым!

!Обратная связь