Скачать через торрент Пожарная часть 19 Station 19 Фильм бесплатно в хорошем качестве torrent

Скачивайте на UnionPeer.org фильмы через торрент без регистрации. Новинки кино в хорошем качестве через торрент. На UnionPeer.org можно скачать через торрент фильмы 2014 и 2015 годов. Самые новые фильмы.

Скачать торрент Пожарная часть 19 Station 19 бесплатно через .torrent фильм мультфильм сериал

Статистика раздачи
Размер:  5.02 GB   |    Зарегистрирован:  4 года 1 месяц   |    .torrent скачан:  209 раз   |   
Раздают:  1  
   
 
Автор Сообщение

Galfimbul

avatar Galfimbul


Пожарная часть 19 / Station 19


Год выпуска: 2018
Страна: США
Жанр: Боевик, триллер, драма, мелодрама
Продолжительность: ~ 00:44:00

Перевод: Профессиональный (многоголосый закадровый) | Jaskier

Режиссёр: Пэрис Барклай, Джеймс Хэнлон, Зинга Стюарт

В ролях: Джессика Ортиз, Джейсон Уинстон Джордж, Грэй Дэймон, Барретт Досс, Альберто Фрезза, Джей Хейден, Окьерете Онаодован, Даниэль Савре, Мигель Сандовал, Калеб Александр Смит, Джереми Коэнур, Эшли Фусс, Лесли Хоуп, Киана Кейн Эмма Ловен, Эллен Помпео, Шандра Уилсон

Описание: Сериал рассказывает о работниках пожарной станции номер девятнадцать, что располагается в городе Сиэтл. В центре внимания оказывается Энди Эррера. Главная героиня этого сериала работает в своей профессии уже давно. К тому же она обладает некоторой властью, ведь является дочерью самого начальника станции. Характер у Энди весьма сильный: девушка знает, как держать себя в руках даже в самых сложных ситуациях. С такой боевой натурой справляются далеко не все. Новичок Бэн Уоррен многого насмотрелся в своей жизни, ведь когда-то работал анастезиологом в одной из крупнейших больниц Сиэтла. Ему приходится несладко с такой суровой коллегой. Однако рано или поздно связи между персонажами наладятся. История также захватывает рассказ о личной жизни бесстрашного лейтенанта Джека Гибсона, человека, который всю свою жизнь отдал любимому делу. Помимо привычных дел и рабочих забот главные герои задумываются о личной жизни. Энди Эррера влюблена в Райана Тэннера, человека, который служит в местной полиции. Главная героиня до сих пор скрывает свои чувства, выплескивая эмоции на работе. Ей приходится сражаться со стихией, а также быть достойным товарищем для своих коллег по работе. Удается, увы, не всегда.



Качество: WEBRip
Формат: AVI
Видео: XviD, ~ 1400 kbps, 720x400, 23.976 fps
Аудио 1: MP3, 48,0 КГц, 2 ch, 128 kbps - RUS
Аудио 2: MP3, 48,0 КГц, 2 ch, 128 kbps - ENG
Субтитры: отсутствуют
Реклама: аудио, два раза в начале и в конце по 13 секунд
Ссылка на предыдущие и альтернативные раздачи
Общее
Формат                                   : AVI
Формат/Информация                        : Audio Video Interleave
Размер файла                             : 514 Мбайт
Продолжительность                        : 43 м.
Общий поток                              : 1670 Кбит/сек
Программа кодирования                    : VirtualDubMod 1.5.10.3 | www.virtualdub-fr.org || (build 2550/release)
Библиотека кодирования                   : VirtualDubMod build 2550/release

Видео
Идентификатор                            : 0
Формат                                   : MPEG-4 Visual
Профиль формата                          : Advanced Simple@L5
Параметр BVOP формата                    : 2
Параметр QPel формата                    : Нет
Параметр GMC формата                     : Без точки перехода
Параметр матрицы формата                 : Выборочная
Идентификатор кодека                     : XVID
Идентификатор кодека/Подсказка           : XviD
Продолжительность                        : 43 м.
Битрейт                                  : 1400 Кбит/сек
Ширина                                   : 720 пикселей
Высота                                   : 400 пикселей
Соотношение сторон                       : 16:9
Частота кадров                           : 23,976 (23976/1000) кадра/сек
Цветовое пространство                    : YUV
Субдискретизация насыщенности            : 4:2:0
Битовая глубина                          : 8 бит
Тип развёртки                            : Прогрессивная
Метод сжатия                             : С потерями
Бит/(Пиксели*Кадры)                      : 0.203
Размер потока                            : 431 Мбайт (84%)
Библиотека кодирования                   : XviD 73

Аудио #1
Идентификатор                            : 1
Формат                                   : MPEG Audio
Версия формата                           : Version 1
Профиль формата                          : Layer 3
Режим                                    : Joint stereo
Расширение режима                        : MS Stereo
Идентификатор кодека                     : 55
Идентификатор кодека/Подсказка           : MP3
Продолжительность                        : 43 м.
Вид битрейта                             : Постоянный
Битрейт                                  : 128 Кбит/сек
Каналы                                   : 2 канала
Частота                                  : 48,0 КГц
Метод сжатия                             : С потерями
Размер потока                            : 39,4 Мбайт (8%)
Выравнивание                             : Соединение по промежуткам
Продолжительность промежутка             : 42  мс. (1,00 видеокадр)
Время предзагрузки промежутка            : 504  мс.

Аудио #2
Идентификатор                            : 2
Формат                                   : MPEG Audio
Версия формата                           : Version 1
Профиль формата                          : Layer 3
Режим                                    : Joint stereo
Расширение режима                        : MS Stereo
Идентификатор кодека                     : 55
Идентификатор кодека/Подсказка           : MP3
Продолжительность                        : 43 м.
Вид битрейта                             : Постоянный
Битрейт                                  : 128 Кбит/сек
Каналы                                   : 2 канала
Частота                                  : 48,0 КГц
Метод сжатия                             : С потерями
Размер потока                            : 39,4 Мбайт (8%)
Выравнивание                             : Соединение по промежуткам
Продолжительность промежутка             : 42  мс. (1,00 видеокадр)
Время предзагрузки промежутка            : 504  мс.
Когда раздача ведётся путём добавления новых серий, при каждом добавлении создётся новый торрент. Чтобы начать докачку новой серии, пользователям необходимо сделать следующее:
(1) остановить скачивание,
(2) удалить старый торрент у себя из клиента (старые серии удалять не надо),
(3) скачать новый торрент и запустить его у себя в клиенте вместо старого, при этом указать клиенту путь в старую папку, куда и должно происходить скачивание новых серий.
Ваш клиент при этом должен произвести хеширование (проверку) старой папки (если не производит сам - помогите ему сделать это), и будет докачивать только те серии, которых у вас ещё нет. Старые серии при этом не удаляются, а продолжают раздаваться!
Eсли вы уже удалили старые серии, то предотвратить повторную закачку старых серий можно, отжав галочку в соответсвующих местах при запуске нового торрента. По возможности, желательно не удалять старые серии как можно дольше, чтобы релизёр не столько продолжал раздавать старые серии, а смог сконцентрироваться на новых.


Внимание! AdBlock блокирует показ скриншотов, все вопросы к разработчикам )))
Трекер:  [ 20-Май-2018 13:37 ]

  

Скачать .torrent

Размер .torrent файла 26 KB


Размер: 5.02 GB
Хэш (hash) релиза: bc0f77f22789f8a05883f54202e2a6266b191fdb
Подписка на обновления:

Торренты, похожие на Пожарная часть 19 Station 19 скачать торрент

Форум Название Автор Размер S L Добавлен
Зарубежные сериалы ·· Пожарная часть 19 / Station 19 / Сезон: 1 / Серии: 1-10 из 10 (Пэрис Барклай, Джеймс Хэнлон, Зинга Стюарт) [2018, США, Боевик, триллер, драма, мелодрама, WEB-DL 1080p] DUB (Кириллица) + Original + Sub (Eng) Galfimbul 3893207544136.26 GB 0 0 1582096735

10:18

19-Фев-20

Зарубежные сериалы ·· Пожарная часть 19 / Station 19 / Сезон: 1 / Серии: 1-10 из 10 (Пэрис Барклай, Джеймс Хэнлон, Зинга Стюарт) [2018, США, Боевик, триллер, драма, мелодрама, WEBRip] MVO (NewStudio) + Original + Subs (Eng) Galfimbul 84042739117.83 GB 0 0 1529137087

11:18

16-Июн-18

Зарубежные сериалы ·· Пожарная часть 19 / Station 19 / Сезон: 1 / Серии: 1-10 из 10 (Пэрис Барклай, Джеймс Хэнлон, Зинга Стюарт) [2018, США, Боевик, триллер, драма, мелодрама, WEBRip 720p] MVO (Jaskier) + Original Galfimbul 2166849307820.18 GB 0 0 1522703923

00:18

3-Апр-18

Зарубежные сериалы ·· Пожарная часть 19 / Station 19 / Сезон: 1 / Серии: 1-10 из 10 (Пэрис Барклай, Джеймс Хэнлон, Зинга Стюарт) [2018, США, Боевик, триллер, драма, мелодрама, WEBRip] DVO (Gears Media) + Original Galfimbul 56197711845.23 GB 0 0 1522376292

05:18

30-Мар-18

Зарубежные сериалы ·· Пожарная часть 19 / Station 19 / Сезон: 1 / Серии: 1-10 из 10 (Пэрис Барклай, Джеймс Хэнлон, Зинга Стюарт) [2018, США, Боевик, триллер, драма, мелодрама, WEBRip 720p] DVO (Gears Media) + Original Galfimbul 2249439520920.95 GB 0 0 1522369099

03:18

30-Мар-18

Зарубежные сериалы ·· Пожарная часть 19 / Station 19 / Сезон: 1 / Серии: 1-9 из 10 (Пэрис Барклай) [2018, США, боевик, триллер, драма, мелодрама, WEBRip] DUB (Кириллица) + Original Galfimbul 67559813126.29 GB 0 0 1527266891

19:48

25-Май-18

bot

Раздача обновлена!
Перекачайте торрент-файл.

bot

Раздача обновлена!
Перекачайте торрент-файл.

bot

Раздача обновлена!
Перекачайте торрент-файл.

bot

Раздача обновлена!
Перекачайте торрент-файл.

bot

Раздача обновлена!
Перекачайте торрент-файл.

bot

Раздача обновлена!
Перекачайте торрент-файл.

bot

Раздача обновлена!
Перекачайте торрент-файл.

bot

Раздача обновлена!
Перекачайте торрент-файл.

Хотите добавить комментарий к записи скачать торрент Пожарная часть 19 Station 19

!Обратная связь