Скачать через торрент Пожарная часть 19 Station 19 Фильм бесплатно в хорошем качестве torrent

Скачивайте на UnionPeer.org фильмы через торрент без регистрации. Новинки кино в хорошем качестве через торрент. На UnionPeer.org можно скачать через торрент фильмы 2014 и 2015 годов. Самые новые фильмы.

Скачать торрент Пожарная часть 19 Station 19 бесплатно через .torrent фильм мультфильм сериал

Статистика раздачи
Размер:  20.18 GB   |    Зарегистрирован:  4 года 1 месяц   |    .torrent скачан:  231 раз   |   
Раздают:  1  
   
 
Автор Сообщение

Galfimbul

avatar Galfimbul


Пожарная часть 19 / Station 19


Год выпуска: 2018
Страна: США
Жанр: Боевик, триллер, драма, мелодрама
Продолжительность: ~ 00:44:00

Перевод: Профессиональный (многоголосый закадровый) | Jaskier

Режиссёр: Пэрис Барклай, Джеймс Хэнлон, Зинга Стюарт

В ролях: Джессика Ортиз, Джейсон Уинстон Джордж, Грэй Дэймон, Барретт Досс, Альберто Фрезза, Джей Хейден, Окьерете Онаодован, Даниэль Савре, Мигель Сандовал, Калеб Александр Смит, Джереми Коэнур, Эшли Фусс, Лесли Хоуп, Киана Кейн Эмма Ловен, Эллен Помпео, Шандра Уилсон

Описание: Сериал рассказывает о работниках пожарной станции номер девятнадцать, что располагается в городе Сиэтл. В центре внимания оказывается Энди Эррера. Главная героиня этого сериала работает в своей профессии уже давно. К тому же она обладает некоторой властью, ведь является дочерью самого начальника станции. Характер у Энди весьма сильный: девушка знает, как держать себя в руках даже в самых сложных ситуациях. С такой боевой натурой справляются далеко не все. Новичок Бэн Уоррен многого насмотрелся в своей жизни, ведь когда-то работал анастезиологом в одной из крупнейших больниц Сиэтла. Ему приходится несладко с такой суровой коллегой. Однако рано или поздно связи между персонажами наладятся. История также захватывает рассказ о личной жизни бесстрашного лейтенанта Джека Гибсона, человека, который всю свою жизнь отдал любимому делу. Помимо привычных дел и рабочих забот главные герои задумываются о личной жизни. Энди Эррера влюблена в Райана Тэннера, человека, который служит в местной полиции. Главная героиня до сих пор скрывает свои чувства, выплескивая эмоции на работе. Ей приходится сражаться со стихией, а также быть достойным товарищем для своих коллег по работе. Удается, увы, не всегда.



Качество: WEBRip 720p
Формат: MKV
Видео: X264, ~ 5500 kbps, 1280x720 (16:9), 23.976 fps
Аудио 1: AC3, 48,0 КГц, 6 ch, 384 kbps - Rus
Аудио 2: AC3, 48,0 КГц, 6 ch, 384 kbps - Eng
Субтитры: отсутствуют
Реклама: аудио, два раза в начале и в конце по 13 секунд
Ссылка на предыдущие и альтернативные раздачи
Общее
Уникальный идентификатор                 : 177543814869495416251720712648077645691 (0x8591B1E83ABE8FC9B1E5215BF7D8977B)
Полное имя                               : X:\00000\Station.19. Сезон 1. (WEB l 720p l JASKiER)\Station.19.S01E01.720p. JASKiER.mkv
Формат                                   : Matroska
Версия формата                           : Version 2
Размер файла                             : 1,88 Гбайт
Продолжительность                        : 43 м.
Общий поток                              : 6247 Кбит/сек
Дата кодирования                         : UTC 2018-04-02 19:36:06
Программа кодирования                    : mkvmerge v5.8.0 ('No Sleep / Pillow') built on Sep  2 2012 15:37:04
Библиотека кодирования                   : libebml v1.2.3 + libmatroska v1.3.0

Видео
Идентификатор                            : 1
Формат                                   : AVC
Формат/Информация                        : Advanced Video Codec
Профиль формата                          : High@L4.1
Параметр CABAC формата                   : Да
Параметр ReFrames формата                : 9 кадров
Идентификатор кодека                     : V_MPEG4/ISO/AVC
Продолжительность                        : 43 м.
Битрейт                                  : 5354 Кбит/сек
Ширина                                   : 1280 пикселей
Высота                                   : 720 пикселей
Соотношение сторон                       : 16:9
Режим частоты кадров                     : Постоянный
Частота кадров                           : 23,976 (24000/1001) кадра/сек
Цветовое пространство                    : YUV
Субдискретизация насыщенности            : 4:2:0
Битовая глубина                          : 8 бит
Тип развёртки                            : Прогрессивная
Бит/(Пиксели*Кадры)                      : 0.242
Размер потока                            : 1,61 Гбайт (86%)
Библиотека кодирования                   : x264 core 148 r2643 5c65704
Настройки программы                      : cabac=1 / ref=9 / deblock=1:-3:-3 / analyse=0x3:0x133 / me=umh / subme=11 / psy=1 / psy_rd=1.00:0.00 / mixed_ref=1 / me_range=32 / chroma_me=1 / trellis=2 / 8x8dct=1 / cqm=0 / deadzone=21,11 / fast_pskip=1 / chroma_qp_offset=-2 / threads=6 / lookahead_threads=2 / sliced_threads=0 / nr=0 / decimate=0 / interlaced=0 / bluray_compat=0 / constrained_intra=0 / bframes=8 / b_pyramid=2 / b_adapt=2 / b_bias=0 / direct=3 / weightb=1 / open_gop=0 / weightp=2 / keyint=250 / keyint_min=23 / scenecut=40 / intra_refresh=0 / rc=crf / mbtree=0 / crf=17.0 / qcomp=0.60 / qpmin=0 / qpmax=69 / qpstep=4 / ip_ratio=1.40 / pb_ratio=1.30 / aq=3:0.85
Default                                  : Да
Forced                                   : Нет

Аудио #1
Идентификатор                            : 2
Формат                                   : AC-3
Формат/Информация                        : Audio Coding 3
Расширение режима                        : CM (complete main)
Параметр Endianness формата              : Big
Идентификатор кодека                     : A_AC3
Продолжительность                        : 43 м.
Вид битрейта                             : Постоянный
Битрейт                                  : 384 Кбит/сек
Каналы                                   : 6 каналов
Расположение каналов                     : Front: L C R, Side: L R, LFE
Частота                                  : 48,0 КГц
Частота кадров                           : 31,250 кадров/сек (1536 spf)
Метод сжатия                             : С потерями
Размер потока                            : 118 Мбайт (6%)
Язык                                     : Russian
Default                                  : Да
Forced                                   : Нет

Аудио #2
Идентификатор                            : 3
Формат                                   : AC-3
Формат/Информация                        : Audio Coding 3
Расширение режима                        : CM (complete main)
Параметр Endianness формата              : Big
Идентификатор кодека                     : A_AC3
Продолжительность                        : 43 м.
Вид битрейта                             : Постоянный
Битрейт                                  : 384 Кбит/сек
Каналы                                   : 6 каналов
Расположение каналов                     : Front: L C R, Side: L R, LFE
Частота                                  : 48,0 КГц
Частота кадров                           : 31,250 кадров/сек (1536 spf)
Метод сжатия                             : С потерями
Размер потока                            : 118 Мбайт (6%)
Язык                                     : English
Default                                  : Нет
Forced                                   : Нет
Когда раздача ведётся путём добавления новых серий, при каждом добавлении создётся новый торрент. Чтобы начать докачку новой серии, пользователям необходимо сделать следующее:
(1) остановить скачивание,
(2) удалить старый торрент у себя из клиента (старые серии удалять не надо),
(3) скачать новый торрент и запустить его у себя в клиенте вместо старого, при этом указать клиенту путь в старую папку, куда и должно происходить скачивание новых серий.
Ваш клиент при этом должен произвести хеширование (проверку) старой папки (если не производит сам - помогите ему сделать это), и будет докачивать только те серии, которых у вас ещё нет. Старые серии при этом не удаляются, а продолжают раздаваться!
Eсли вы уже удалили старые серии, то предотвратить повторную закачку старых серий можно, отжав галочку в соответсвующих местах при запуске нового торрента. По возможности, желательно не удалять старые серии как можно дольше, чтобы релизёр не столько продолжал раздавать старые серии, а смог сконцентрироваться на новых.


Внимание! AdBlock блокирует показ скриншотов, все вопросы к разработчикам )))
Трекер:  [ 20-Май-2018 13:37 ]

  

Скачать .torrent

Размер .torrent файла 102 KB


Размер: 20.18 GB
Хэш (hash) релиза: f114f133c5df6af0f439f91e00c344ce87f26f43
Подписка на обновления:

Торренты, похожие на Пожарная часть 19 Station 19 скачать торрент

Форум Название Автор Размер S L Добавлен
Зарубежные сериалы ·· Пожарная часть 19 / Station 19 / Сезон: 1 / Серии: 1-10 из 10 (Пэрис Барклай, Джеймс Хэнлон, Зинга Стюарт) [2018, США, Боевик, триллер, драма, мелодрама, WEB-DL 1080p] DUB (Кириллица) + Original + Sub (Eng) Galfimbul 3893207544136.26 GB 0 0 1582096735

10:18

19-Фев-20

Зарубежные сериалы ·· Пожарная часть 19 / Station 19 / Сезон: 1 / Серии: 1-10 из 10 (Пэрис Барклай, Джеймс Хэнлон, Зинга Стюарт) [2018, США, Боевик, триллер, драма, мелодрама, WEBRip] MVO (NewStudio) + Original + Subs (Eng) Galfimbul 84042739117.83 GB 0 0 1529137087

11:18

16-Июн-18

Зарубежные сериалы ·· Пожарная часть 19 / Station 19 / Сезон: 1 / Серии: 1-10 из 10 (Пэрис Барклай, Джеймс Хэнлон, Зинга Стюарт) [2018, США, Боевик, триллер, драма, мелодрама, WEBRip] MVO (Jaskier) + Original Galfimbul 53848678405.02 GB 0 0 1522703898

00:18

3-Апр-18

Зарубежные сериалы ·· Пожарная часть 19 / Station 19 / Сезон: 1 / Серии: 1-10 из 10 (Пэрис Барклай, Джеймс Хэнлон, Зинга Стюарт) [2018, США, Боевик, триллер, драма, мелодрама, WEBRip] DVO (Gears Media) + Original Galfimbul 56197711845.23 GB 0 0 1522376292

05:18

30-Мар-18

Зарубежные сериалы ·· Пожарная часть 19 / Station 19 / Сезон: 1 / Серии: 1-10 из 10 (Пэрис Барклай, Джеймс Хэнлон, Зинга Стюарт) [2018, США, Боевик, триллер, драма, мелодрама, WEBRip 720p] DVO (Gears Media) + Original Galfimbul 2249439520920.95 GB 0 0 1522369099

03:18

30-Мар-18

Зарубежные сериалы ·· Пожарная часть 19 / Station 19 / Сезон: 1 / Серии: 1-9 из 10 (Пэрис Барклай) [2018, США, боевик, триллер, драма, мелодрама, WEBRip] DUB (Кириллица) + Original Galfimbul 67559813126.29 GB 0 0 1527266891

19:48

25-Май-18

bot

Раздача обновлена!
Перекачайте торрент-файл.

bot

Раздача обновлена!
Перекачайте торрент-файл.

bot

Раздача обновлена!
Перекачайте торрент-файл.

bot

Раздача обновлена!
Перекачайте торрент-файл.

bot

Раздача обновлена!
Перекачайте торрент-файл.

bot

Раздача обновлена!
Перекачайте торрент-файл.

bot

Раздача обновлена!
Перекачайте торрент-файл.

bot

Раздача обновлена!
Перекачайте торрент-файл.

bot

Раздача обновлена!
Перекачайте торрент-файл.

Хотите добавить комментарий к записи скачать торрент Пожарная часть 19 Station 19

!Обратная связь