Скачать через торрент Бэтмен: Готэм в газовом свете Batman: Gotham by Gaslight Фильм бесплатно в хорошем качестве torrent

Скачивайте на UnionPeer.org фильмы через торрент без регистрации. Новинки кино в хорошем качестве через торрент. На UnionPeer.org можно скачать через торрент фильмы 2014 и 2015 годов. Самые новые фильмы.

Скачать торрент Бэтмен: Готэм в газовом свете Batman: Gotham by Gaslight бесплатно через .torrent фильм мультфильм сериал

Статистика раздачи
Размер:  1.37 GB   |    Зарегистрирован:  3 месяца 7 дней   |    .torrent скачан:  121 раз   |   
Раздают:  1  
   
загрузка...
 
Автор Сообщение

Galfimbul

avatar Galfimbul


Название: Бэтмен: Готэм в газовом свете
Оригинальное название: Batman: Gotham by Gaslight
Год выхода: 2018
Жанр: мультфильм, фэнтези, боевик, криминал, детектив
Режиссер: Сэм Лью
В ролях: Дженнифер Карпентер, Тара Стронг, Брюс Гринвуд, Скотт Гордон-Паттерсон, Кари Уорер, Грей ДеЛайл, Джон Ди Маджио, Энтони Хэд, Линкольн Мелчер, Юрий Ловенталь

О фильме:
В альтернативной истории в 1889 году Брюс Уэйн возвращается в Готэм из своего путешествия по Европе. Город викторианской эпохи всё так же привлекает преступников. Череда загадочных и зверских убийств заставляет жителей подозревать, что убийца — Бэтмен. Тёмному Рыцарю бросает вызов самый известный маньяк XIX века — Джек-потрошитель.



Страна: США
Продолжительность: 01:17:04
Перевод: Профессиональный многоголосый закадровый (студия Jaskier)

Файл
Кодек: XviD | Avi
Качество: HDRip
Видео: ~ 2156 kbps, 720x400, 23.976 fps
Аудио Rus: AC3, 384 kb/s (6 ch)
Субтитры: отсутствуют
Без рекламы.
Общее
Полное имя : D:ЯскъерBatman.Gotham.by.Gaslight.2018.HDRip.Jaskier.avi
Формат : AVI
Формат/Информация : Audio Video Interleave
Размер файла : 1,37 Гбайт
Продолжительность : 1 ч. 17 м.
Общий поток : 2549 Кбит/сек
Программа кодирования : VirtualDubMod 1.5.10.3 | www.virtualdub-fr.org || (build 2550/release)
Библиотека кодирования : VirtualDubMod build 2550/release

Видео
Идентификатор : 0
Формат : MPEG-4 Visual
Профиль формата : Advanced Simple@L5
Настройки формата : BVOP1 / Custom Matrix
Параметр BVOP формата : 1
Параметр QPel формата : Нет
Параметр GMC формата : Без точки перехода
Параметр матрицы формата : Выборочная
Идентификатор кодека : XVID
Идентификатор кодека/Подсказка : XviD
Продолжительность : 1 ч. 17 м.
Битрейт : 2156 Кбит/сек
Ширина : 720 пикселей
Высота : 400 пикселей
Соотношение сторон : 16:9
Частота кадров : 23,976 (24000/1001) кадра/сек
Цветовое пространство : YUV
Субдискретизация насыщенности : 4:2:0
Битовая глубина : 8 бит
Тип развёртки : Прогрессивная
Метод сжатия : С потерями
Бит/(Пиксели*Кадры) : 0.312
Размер потока : 1,16 Гбайт (85%)
Библиотека кодирования : XviD 73

Аудио
Идентификатор : 1
Формат : AC-3
Формат/Информация : Audio Coding 3
Идентификатор кодека : 2000
Продолжительность : 1 ч. 17 м.
Вид битрейта : Постоянный
Битрейт : 384 Кбит/сек
Каналы : 6 каналов
Расположение каналов : Front: L C R, Side: L R, LFE
Частота : 48,0 КГц
Частота кадров : 31,250 кадров/сек (1536 SPF)
Битовая глубина : 16 бит
Метод сжатия : С потерями
Размер потока : 212 Мбайт (15%)
Выравнивание : Разделение по промежуткам
Продолжительность промежутка : 42 мс. (1,00 видеокадр)
Время предзагрузки промежутка : 500 мс.
Источник http://blator.org

Трекер:  [ 13-Апр-2018 06:20 ]

  

Скачать .torrent

Размер .torrent файла 14 KB


Размер: 1.37 GB
Хэш (hash) релиза: a61e4e8fa069745ab44b9a7a8e60b4d13b8c31cd
Подписка на обновления:

Торренты, похожие на Бэтмен: Готэм в газовом свете Batman: Gotham by Gaslight скачать торрент

Форум Название Автор Размер S L Добавлен
Мультфильмы до 2016 ·· Бэтмен: Готэм в газовом свете / Batman: Gotham by Gaslight (Сэм Лью / Sam Liu) [2018, США, мультфильм, фэнтези, боевик, криминал, детектив,, BDRip] MVO (Jaskier) Galfimbul 15657410561.46 GB 0 0 1523685704

09:01

14-Апр-18

Мультфильмы 2016-2018 (Новинки мультфильмов) ·· Бэтмен: Готэм в газовом свете / Batman: Gotham by Gaslight (Сэм Лью / Sam Liu) [2018, мультфильм, боевик, BDRip 1080p] Jaskier Galfimbul 39459520423.67 GB 2 0 1523589644

06:20

13-Апр-18

Мультфильмы 2016-2018 (Новинки мультфильмов) ·· Бэтмен: Готэм в газовом свете / Batman: Gotham by Gaslight (Сэм Лью / Sam Liu) [2018, мультфильм, боевик, BDRip 720p] Jaskier Galfimbul 22090650532.06 GB 0 0 1523589631

06:20

13-Апр-18

Мультфильмы до 2016 ·· Бэтмен: Готэм в газовом свете / Batman: Gotham by Gaslight (Сэм Лью / Sam Liu) [2018, мультфильм, боевик, BDRemux 1080p] MVO + Original Eng + rus, eng sub Galfimbul 1139283933610.61 GB 0 0 1522785691

23:01

3-Апр-18

Мультфильмы 2016-2018 (Новинки мультфильмов) ·· Бэтмен: Готэм в газовом свете / Batman: Gotham by Gaslight (Сэм Лью) [2018, США, мультфильм, фэнтези, боевик, криминал, детектив, WEBRip 720p] RusFilm Galfimbul 979235237934 MB 2 0 1521795631

12:00

23-Мар-18

Мультфильмы до 2016 ·· Бэтмен: Готэм в газовом свете / Batman: Gotham by Gaslight (Сэм Лью) [2018, США, мультфильм, фэнтези, боевик, криминал, детектив, BDRip 1080p] MVO (D1) + Original (Eng) Galfimbul 59806397435.57 GB 0 0 1518608185

14:36

14-Фев-18

Мультфильмы 2016-2018 (Новинки мультфильмов) ·· Бэтмен: Готэм в газовом свете / Batman: Gotham by Gaslight (Сэм Лью / Sam Liu) [2017, мультфильм, боевик, BDRip 1080p] D1production Galfimbul 59806397965.57 GB 2 0 1518327063

08:31

11-Фев-18

Мультфильмы 2016-2018 (Новинки мультфильмов) ·· Бэтмен: Готэм в газовом свете / Batman: Gotham by Gaslight (Сэм Лью / Sam Liu) [2017, мультфильм, боевик, BDRip 720p] D1production Galfimbul 36270769063.38 GB 0 0 1518327045

08:30

11-Фев-18

Мультфильмы до 2016 ·· Бэтмен: Готэм в газовом свете / Batman: Gotham by Gaslight (Сэм Лью / Sam Liu) [2017, мультфильм, боевик, Blu-Ray > DVD5 (Custom)] MVO + Original Eng + rus, eng sub Galfimbul 46577745924.34 GB 0 0 1518069992

09:06

8-Фев-18

Мультфильмы 2016-2018 (Новинки мультфильмов) ·· Бэтмен: Готэм в газовом свете / Batman: Gotham by Gaslight (Сэм Лью/Sam Liu) [2018, США, Мультфильм, фэнтези, боевик, криминал, детектив, WEBRip 720p] Flarrow Films Galfimbul 25713337782.39 GB 2 0 1517752250

16:50

4-Фев-18

Мультфильмы до 2016 ·· Бэтмен: Готэм в газовом свете / Batman: Gotham by Gaslight (Сэм Лью/Sam Liu) [2018, США, Мультфильм, фэнтези, боевик, криминал, детектив, BDRip 1080p] MVO + Rus Sub Galfimbul 31899675172.97 GB 0 0 1517679388

20:36

3-Фев-18

Мультфильмы до 2016 ·· Бэтмен: Готэм в Газовом Свете / Batman: Gotham by Gaslight (Сэм Лью) [2018, США, мультфильм, фэнтези, боевик, криминал, детектив, BDRip 1080p] Rus Sub Galfimbul 30787686322.87 GB 0 0 1516975586

17:06

26-Янв-18

Еще никто не оставлял запись к записи скачать торрент Бэтмен: Готэм в газовом свете Batman: Gotham by Gaslight . Будь первым!

!Обратная связь