Скачать через торрент Кровавый бой 2: Клетка смерти Bloodfight 2: The Death Cage Фильм бесплатно в хорошем качестве torrent

Скачивайте на UnionPeer.org фильмы через торрент без регистрации. Новинки кино в хорошем качестве через торрент. На UnionPeer.org можно скачать через торрент фильмы 2014 и 2015 годов. Самые новые фильмы.

Скачать торрент Кровавый бой 2: Клетка смерти Bloodfight 2: The Death Cage бесплатно через .torrent фильм мультфильм сериал

Статистика раздачи
Размер:  1.44 GB   |    Зарегистрирован:  5 лет 10 месяцев   |    .torrent скачан:  42 раза   |   
Раздают:  1  
   
 
Автор Сообщение

Galfimbul

avatar Galfimbul


Кровавый бой 2: Клетка смерти / Bloodfight 2: The Death Cage / Zhan long

Страна: Гонконг
Жанр: боевые искусства
Год выпуска: 1988
Продолжительность: 01:32:16

Перевод: Авторский (одноголосый закадровый) Антон Алексеев
Субтитры: нет
Оригинальная аудиодорожка: английский

Режиссер: Роберт Тэй / Robert Tai

В ролях: Робин Шоу, Джо Льюис, Стиви Тарталия, Тайгер Ким, Анджела Тсаи, Вики Ким, Вейн Арчер, Марк Лонг, Брайан Люси, Тоби Расселл

Описание: Как известно, вокруг любых поединков, всегда крутятся деньги, а где деньги, там не бывает честной игры. Си Хан (Робин Шу), представитель школы "Белый Китай", проигрывает явно подстроенный поединок, бойцу из "Кен До". Следствием проигрыша становится закрытие школы, и начало новой карьеры, на поприще механика, в маленьком гаражном сервисе, на задворках города. Так бы и продолжалась жизнь Си Хана в машинном масле и болтах, если бы представители школы "Кен До" не стали терять деньги на тотализаторе, из за отсутствия достойных противников для своих бойцов. Для подстёгивания интереса к боям, они решают провести матч-реванш, между собой и "Белым Китаем", к участию в котором принуждают Си Хана. Во время боя Си Хан, вопреки всем козням противников, триумфально возвращает себе титул чемпиона. Но как показала жизнь, он начал рано прыгать от счастья - неприятности только начались..

Доп. информация: Дорожка с А. Алексеевым синхронизирована и наложена ale_x2008 при помощи Adobe Audition, Sony Vegas и VirtualDubMod. Нормализована громкость -4 db.

За оцифрованную с VHS дорожку благодарим - михаил642

Релиз

Сэмпл: https://yadi.sk/i/mkd4fAKj3UQ7DH

Качество видео: DVDRip
Формат видео: AVI

Видео: XviD build 73, 704x400 (1.76:1), 23.976 fps, 1841 kbps avg, 0.27 bit/pixel
Аудио: AC3 Dolby Digital, 48000Hz, 2/0 (L,R) ch (mono), 192.00 kbps avg
Аудио 2: AC3 Dolby Digital, 48000Hz, 2/0 (L,R) ch, 192.00 kbps avg
Клетка смерти - Zhan long (by ale_x2008).aviFormat : AVIFormat/Info : Audio Video InterleaveFile size : 1.44 GiBDuration : 1 h 32 minOverall bit rate : 2 240 kb/sMovie name : Клетка смерти - Zhan long (by ale_x2008)Director : by ale_x2008Writing application : VirtualDubMod 1.5.10.2 (build 2540/release)Copyright : Edich2Comment : Rutracker.org

VideoID : 0Format : MPEG-4 VisualFormat profile : Advanced Simple@L5Format settings, BVOP : 2Format settings, QPel : NoFormat settings, GMC : No warppointsFormat settings, Matrix : CustomCodec ID : XVIDCodec ID/Hint : XviDDuration : 1 h 32 minBit rate : 1 842 kb/sWidth : 704 pixelsHeight : 400 pixelsDisplay aspect ratio : 16:9Frame rate : 23.976 (24000/1001) FPSColor space : YUVChroma subsampling : 4:2:0Bit depth : 8 bitsScan type : ProgressiveCompression mode : LossyBits/(Pixel*Frame) : 0.273Stream size : 1.19 GiB (82%)Writing library : XviD 73

Audio #1ID : 1Format : AC-3Format/Info : Audio Coding 3Format settings, Endianness : BigCodec ID : 2000Duration : 1 h 32 minBit rate mode : ConstantBit rate : 192 kb/sChannel(s) : 2 channelsChannel positions : Front: L RSampling rate : 48.0 kHzFrame rate : 31.250 FPS (1536 spf)Bit depth : 16 bitsCompression mode : LossyStream size : 127 MiB (9%)Alignment : Split accross interleavesInterleave, duration : 42 ms (1.00 video frame)Interleave, preload duratio : 500 msService kind : Complete Main

Audio #2ID : 2Format : AC-3Format/Info : Audio Coding 3Format settings, Endianness : BigCodec ID : 2000Duration : 1 h 32 minBit rate mode : ConstantBit rate : 192 kb/sChannel(s) : 2 channelsChannel positions : Front: L RSampling rate : 48.0 kHzFrame rate : 31.250 FPS (1536 spf)Bit depth : 16 bitsCompression mode : LossyStream size : 127 MiB (9%)Alignment : Split accross interleavesInterleave, duration : 42 ms (1.00 video frame)Interleave, preload duratio : 500 msService kind : Complete Main


Внимание! AdBlock блокирует показ скриншотов, все вопросы к разработчикам )))
Трекер:  [ 14-Апр-2018 08:01 ]

  

Скачать .torrent

Размер .torrent файла 15 KB


Размер: 1.44 GB
Хэш (hash) релиза: 89ef03c4c462897191542b1a97d5aa23d1373a14
Подписка на обновления:

Еще никто не оставлял запись к записи скачать торрент Кровавый бой 2: Клетка смерти Bloodfight 2: The Death Cage . Будь первым!

!Обратная связь