Скачать через торрент Ловушка A Kind of Murder Фильм бесплатно в хорошем качестве torrent

Скачивайте на UnionPeer.org фильмы через торрент без регистрации. Новинки кино в хорошем качестве через торрент. На UnionPeer.org можно скачать через торрент фильмы 2014 и 2015 годов. Самые новые фильмы.

Скачать торрент Ловушка A Kind of Murder бесплатно через .torrent фильм мультфильм сериал

Статистика раздачи
Размер:  5.54 GB   |    Зарегистрирован:  5 лет 10 месяцев   |    .torrent скачан:  38 раз   |   
Раздают:  1  
 

Скачать Ловушка / A Kind of Murder (Энди Годдард / Andy Goddard) [2016, США, Триллер, драма, криминал, DVD9] R5 Dub + Sub Rus + Original Eng через torrent

 
 
Автор Сообщение

Galfimbul

avatar Galfimbul


Ловушка / A Kind of Murder
«From the Novel by Patricia Highsmith»
Страна: США
Студии: Sierra Pictures, Electric Shadow, 120dB Films, Killer Films
Жанр: Триллер, драма, криминал
Год выпуска: 2016
Дата мировой премьеры: 17 апреля 2016
Дата российской премьеры: 19 января 2017, «Cinema Prestige»
Дата выхода DVD релиза: 15 июня 2017, «Cinema Prestige»
Продолжительность: 01:31:32
Перевод: Профессиональный (дублированный) [Лицензия]
Субтитры: Русские
Оригинальная аудиодорожка: английская
Режиссер: Энди Годдард / Andy Goddard
Продюсеры: Сюзан Бойд, Даррен М. Деметре, Энди Годдард
Актеры: Патрик Уилсон, Хейли Беннетт, Джессика Бил, Эдди Марсан, Винсент Картайзер, Джон Осбек, Радек Лорд, Кристин А. Дай, Kelly Mengelkoch, Корри Дэниэли
Описание:
Нью-Йорк, шестидесятые годы прошлого века. Стэкхаусы — внешне идеальная семейная пара: молодые, красивые, успешные. Он — удачливый архитектор, она — процветающий риелтор и великолепная хозяйка великолепного дома. На самом деле Уолтер давно думает о разводе, потому что Клара замучила его своими претензиями, истериками, ревностью и угрозами покончить с собой, если он ее оставит. Однажды внимание Уолтера привлекает газетная заметка: женщина, жена букиниста, жестоко убита неподалеку от стоянки автобуса, преступника не нашли. Ему кажется, что убийцей мог быть муж жертвы, хотя у того, казалось бы, надежное алиби. Стекхаус решает с ним встретиться, не предполагая, в какую ловушку угодит.

Доп. материалы: Трейлер, Анонсы

Качество: DVD9 R5
Формат: DVD-Video

Видео: MPEG-2, 720x576@1024x576 (PAL 16:9), ~7000 Кбит/сек
Аудио 1: AC3 5.1, 384 Кбит/сек [Русский - дублированный]
Аудио 2: AC3 5.1, 384 Кбит/сек [Английский - оригинал]
Title: A Kind of Murder (2016) DVD9 R5
Size: 5.54 Gb ( 5 807 668 KBytes ) - DVD-9
Enabled regions: 1, 2, 3, 4, 5, 6, 7, 8

VTS_01 :
Play Length: 00:00:10
Video: PAL 16:9 (720x576) VBR, Auto Pan&Scan

VTS_02 :
Play Length: 00:00:07
Video: PAL 16:9 (720x576) VBR, Auto Pan&Scan
Audio:
English (Dolby AC3, 6 ch)

VTS_03 :
Play Length: 00:02:19
Video: PAL 16:9 (720x576) VBR, Auto Pan&Scan
Audio:
Russian (Dolby AC3, 6 ch)
Russian (Dolby AC3, 6 ch)

VTS_04 :
Play Length: 00:02:07
Video: PAL 16:9 (720x576) VBR, Auto Pan&Scan
Audio:
Russian (Dolby AC3, 2 ch)
Russian (Dolby AC3, 2 ch)

VTS_05 :
Play Length: 00:02:29
Video: PAL 16:9 (720x576) VBR, Auto Pan&Scan
Audio:
Russian (Dolby AC3, 6 ch)
Russian (Dolby AC3, 6 ch)

VTS_06 :
Play Length: 00:02:19
Video: PAL 16:9 (720x576) VBR, Auto Pan&Scan
Audio:
Russian (Dolby AC3, 6 ch)
Russian (Dolby AC3, 6 ch)

VTS_07 :
Play Length: 00:01:45
Video: PAL 16:9 (720x576) VBR, Auto Pan&Scan
Audio:
Russian (Dolby AC3, 6 ch)
Russian (Dolby AC3, 6 ch)

VTS_08 :
Play Length: 01:31:32
Video: PAL 16:9 (720x576) VBR, Auto Pan&Scan, Auto Letterboxed
Audio:
Russian (Dolby AC3, 6 ch)
English (Dolby AC3, 6 ch)
Subtitles:
Russian

Menu Video:
PAL 16:9 (720x576) VBR
Auto Pan&Scan, Auto Letterboxed
Menu Subtitles:
Not specified
Menu English Language Unit :
Root Menu
Общее
Полное имя : V:\Torrents\A Kind of Murder (2016) DVD9 R5\VIDEO_TS\VTS_08_1.VOB
Формат : MPEG-PS
Размер файла : 1024 Мбайт
Продолжительность : 18 м. 0 с.
Режим общего битрейта : Переменный
Общий поток : 7951 Кбит/сек

Видео
Идентификатор : 224 (0xE0)
Формат : MPEG Video
Версия формата : Version 2
Профиль формата : Main@Main
Настройки формата : BVOP
Параметр BVOP формата : Да
Параметр матрицы формата : По умолчанию
Параметр GOP формата : M=3, N=12
Продолжительность : 18 м. 0 с.
Вид битрейта : Переменный
Битрейт : 7024 Кбит/сек
Максимальный битрейт : 8500 Кбит/сек
Ширина : 720 пикселей
Высота : 576 пикселей
Соотношение сторон : 16:9
Частота кадров : 25,000 кадров/сек
Стандарт вещания : PAL
Цветовое пространство : YUV
Субдискретизация насыщенности : 4:2:0
Битовая глубина : 8 бит
Тип развёртки : Прогрессивная
Метод сжатия : С потерями
Бит/(Пиксели*Кадры) : 0.678
Временной код первого кадра : 00:00:00:00
Оригинал временного кода : Group of pictures header
GOP, открыто/закрыто : Открыто
GOP, открыто/закрыто на первом кадре : Закрыто
Размер потока : 905 Мбайт (88%)

Аудио #1
Идентификатор : 189 (0xBD)-128 (0x80)
Формат : AC-3
Формат/Информация : Audio Coding 3
Параметр Endianness формата : Big
Режим смешивания : DVD-Video
Продолжительность : 17 м. 59 с.
Вид битрейта : Постоянный
Битрейт : 384 Кбит/сек
Каналы : 6 каналов
Расположение каналов : Front: L C R, Side: L R, LFE
Частота : 48,0 КГц
Частота кадров : 31,250 кадров/сек (1536 SPF)
Битовая глубина : 16 бит
Метод сжатия : С потерями
Размер потока : 49,4 Мбайт (5%)
ServiceKind/String : Complete Main

Аудио #2
Идентификатор : 189 (0xBD)-129 (0x81)
Формат : AC-3
Формат/Информация : Audio Coding 3
Параметр Endianness формата : Big
Режим смешивания : DVD-Video
Продолжительность : 17 м. 59 с.
Вид битрейта : Постоянный
Битрейт : 384 Кбит/сек
Каналы : 6 каналов
Расположение каналов : Front: L C R, Side: L R, LFE
Частота : 48,0 КГц
Частота кадров : 31,250 кадров/сек (1536 SPF)
Битовая глубина : 16 бит
Метод сжатия : С потерями
Размер потока : 49,4 Мбайт (5%)
ServiceKind/String : Complete Main

Текст
Идентификатор : 189 (0xBD)-32 (0x20)
Формат : RLE
Формат/Информация : Run-length encoding
Режим смешивания : DVD-Video

Меню

За предоставленный DVD спасибо большое AKIM2B
Раздаю с 10:00 до 23:00 до 10 скачавших.

Внимание! AdBlock блокирует показ скриншотов, все вопросы к разработчикам )))
Трекер:  [ 25-Апр-2018 16:30 ]

  

Скачать .torrent

Размер .torrent файла 30 KB


Размер: 5.54 GB
Хэш (hash) релиза: d9e460df80e380b89a31b10c51504e6eb27d8934
Подписка на обновления:

Торренты, похожие на Ловушка A Kind of Murder скачать торрент

Форум Название Автор Размер S L Добавлен
Зарубежные фильмы 2016-2019 (Новинки зарубежного кино) ·· Ловушка / A Kind of Murder (Энди Годдард) [2016, триллер, драма, WEB-DL 1080p] Galfimbul 37554801863.5 GB 0 0 1484583524

19:18

16-Янв-17

Зарубежные фильмы 2016-2019 (Новинки зарубежного кино) ·· Ловушка / A Kind of Murder (Энди Годдард) [2016, триллер, драма, WEB-DLRip] Galfimbul 14673080321.37 GB 0 0 1482219761

10:42

20-Дек-16

Еще никто не оставлял запись к записи скачать торрент Ловушка A Kind of Murder . Будь первым!

!Обратная связь