Скачать через торрент Сущность жизни. Essence of Life. Фильм бесплатно в хорошем качестве torrent

Скачивайте на UnionPeer.org фильмы через торрент без регистрации. Новинки кино в хорошем качестве через торрент. На UnionPeer.org можно скачать через торрент фильмы 2014 и 2015 годов. Самые новые фильмы.

Скачать торрент Сущность жизни. Essence of Life. бесплатно через .torrent фильм мультфильм сериал

Статистика раздачи
Размер:  836 MB   |    Зарегистрирован:  7 месяцев   |    .torrent скачан:  44 раза   |   
Раздают:  1  
   
загрузка...
 
Автор Сообщение

Galfimbul

avatar Galfimbul


Сущность жизни. / Essence of Life. (Koyaanisqatsi)

Тип раздаваемого материала: фильм о фильме
Год выпуска фильма: 2002
Страна: USA
Жанр: Documentary, Short
Продолжительность: 00:25:06

Язык: Английский
Перевод: Любительский (одноголосый закадровый) KEWE
Русские субтитры: нет

Режиссер: Greg Carson
В ролях: Godfrey Reggio, Philip Glass

Описание: Кинорежиссер Годфри Реджо и композитор Филипп Гласс рассказывают о своем фильме 1982 года «Кояанискаци».
Этот документальный фильм был представлен на специальном выпуске DVD "Кояанискатси" (1982), выпущенном в 2003 году.
https://www.imdb.com/title/tt0352499/
Качество: DVDRip
Формат видео: AVI
Аудио кодек: MP3
Видео: DivX 5; 720x404; (221:124); 29.97fps; 4452kbps
Аудио: MP3; 44100Hz; stereo; 192kbps
Complete name : E:\Torrent Razdachi\Essence of Life - (Koyaanisqatsi) - 2002 - RUS\Essence of Life - (Koyaanisqatsi) - 2002 - RUS.avi
Format : AVI
Format/Info : Audio Video Interleave
File size : 836 MiB
Duration : 25mn 6s
Overall bit rate : 4 657 Kbps
Movie name : QATSI_1_Title5
Writing application : VirtualDubMod 1.5.10.2 (build 2540/release)
Writing library : VirtualDubMod build 2540/release

Video
ID : 0
Format : MPEG-4 Visual
Format profile : Simple@L1
Format settings, BVOP : No
Format settings, QPel : No
Format settings, GMC : No warppoints
Format settings, Matrix : Default (H.263)
Codec ID : DX50
Codec ID/Hint : DivX 5
Duration : 25mn 6s
Bit rate : 4 453 Kbps
Width : 720 pixels
Height : 404 pixels
Display aspect ratio : 16:9
Frame rate : 29.970 fps
Color space : YUV
Chroma subsampling : 4:2:0
Bit depth : 8 bits
Scan type : Progressive
Compression mode : Lossy
Bits/(Pixel*Frame) : 0.511
Stream size : 799 MiB (96%)
Writing library : Lavc54.23.100

Audio
ID : 1
Format : MPEG Audio
Format version : Version 1
Format profile : Layer 3
Codec ID : 55
Codec ID/Hint : MP3
Duration : 25mn 6s
Bit rate mode : Constant
Bit rate : 192 Kbps
Channel(s) : 2 channels
Sampling rate : 44.1 KHz
Compression mode : Lossy
Stream size : 34.5 MiB (4%)
Alignment : Split accross interleaves
Interleave, duration : 33 ms (1.00 video frame)
Interleave, preload duration : 500 ms


Трекер:  [ 27-Апр-2018 02:30 ]

  

Скачать .torrent

Размер .torrent файла 16 KB


Размер: 836 MB
Хэш (hash) релиза: 31c3816c8da4427eb4e90cd25fd5843e82fae35c
Подписка на обновления:

Еще никто не оставлял запись к записи скачать торрент Сущность жизни. Essence of Life. . Будь первым!

!Обратная связь