Скачать через торрент Овечка в правом нижнем углу Загадочная овца Фильм бесплатно в хорошем качестве torrent

Скачивайте на UnionPeer.org фильмы через торрент без регистрации. Новинки кино в хорошем качестве через торрент. На UnionPeer.org можно скачать через торрент фильмы 2014 и 2015 годов. Самые новые фильмы.

Скачать торрент Овечка в правом нижнем углу Загадочная овца бесплатно через .torrent фильм мультфильм сериал

Статистика раздачи
Размер:  1.52 GB   |    Зарегистрирован:  5 месяцев 25 дней   |    .torrent скачан:  25 раз   |   
Раздают:  1  
   
загрузка...
 
Автор Сообщение

Galfimbul

avatar Galfimbul


Овечка в правом нижнем углу / Загадочная овца / Lammas all paremas nurgas

Страна: Эстония
Жанр: семейный, комедия
Год выпуска: 1992
Продолжительность: 01:25:10

Перевод: Одноголосый закадровый
Субтитры: русские
Оригинальная аудиодорожка: эстонская

Режиссер: Лембит Ульфсак / Lembit Ulfsak

В ролях: Тыну Карк / Tõnu Kark, Маргус Альвер / Margus Alver, каур Синисаар / Kaur Sinisaar, Дан Пыльдроос / Dan Põldroos, Айн Лутсепп / Ain Lutsepp, Калью Орро / Kalju Orro, Аарне Укскюла / Aarne Üksküla, Мария Кленская / Maria Klenskaja, Улле Кальюсте / Ülle Kaljuste.

Описание: Добрая комедия с детективным сюжетом. Начало девяностых. Эстония только получила независимость. Это история о двух друзьях мальчишках, узнавших о тайне связанной с картиной, «Овечка в правом нижнем углу». За картиной охотятся провинциальные, и не слишком удачливые бандиты. С ними постоянно что-то случается. Ахвэн – немолодой уже мужик, скопивший на пустых бутылках состояние, которого хватило на покупку мотоцикла «Урал» с коляской, - помогает ребятам выпутываться из самых невероятных ситуаций, и разоблачить негодяев, которые к тому же, посмели украсть у него одну из бутылок…
Фильм полон шуток, раскрывающих зрителю, утонченный эстонский юмор.

Доп. информация: Фильм взят отсюда ...2207872

Сэмпл: http://multi-up.com/1196399

Качество видео: DVDRip
Формат видео: AVI

Видео: 720x464 (1.55:1), 25 fps, XviD build 50 ~2034 kbps avg, 0.24 bit/pixel
Аудио 1: 48 kHz, AC3 Dolby Digital, 2/0 (L,R) ch, ~256 kbps русский
Аудио 2: 48 kHz, AC3 Dolby Digital, 2/0 (L,R) ch, ~256 kbps эстонский
Формат субтитров: hardsub (неотключаемые)
ОбщееПолное имя : F:\С моей озвучкой\Загадочная овца.aviФормат : AVIФормат/Информация : Audio Video InterleaveРазмер файла : 1,52 ГбайтПродолжительность : 1 ч. 25 м.Общий поток : 2562 Кбит/секПрограмма кодирования : VirtualDubModRus 1.5.10.2 (build 2542/release)Библиотека кодирования : VirtualDubMod build 2542/release

ВидеоИдентификатор : 0Формат : MPEG-4 VisualПрофиль формата : Advanced Simple@L5Параметр BVOP формата : 1Параметр QPel формата : НетПараметр GMC формата : Без точки переходаПараметр матрицы формата : ВыборочнаяИдентификатор кодека : XVIDИдентификатор кодека/Подсказка : XviDПродолжительность : 1 ч. 25 м.Битрейт : 2036 Кбит/секШирина : 720 пикселейВысота : 464 пикселяСоотношение сторон : 16:10Частота кадров : 25,000 кадров/секЦветовое пространство : YUVСубдискретизация насыщенности : 4:2:0Битовая глубина : 8 битТип развёртки : ПрогрессивнаяМетод сжатия : С потерямиБит/(Пиксели*Кадры) : 0.244Размер потока : 1,21 Гбайт (79%)Библиотека кодирования : XviD 1.2.1 (UTC 2008-12-04)

Аудио #1Идентификатор : 1Формат : AC-3Формат/Информация : Audio Coding 3Параметр Endianness формата : BigИдентификатор кодека : 2000Продолжительность : 1 ч. 25 м.Вид битрейта : ПостоянныйБитрейт : 256 Кбит/секКаналы : 2 каналаРасположение каналов : Front: L RЧастота : 48,0 КГцЧастота кадров : 31,250 кадров/сек (1536 spf)Битовая глубина : 16 битМетод сжатия : С потерямиРазмер потока : 156 Мбайт (10%)Выравнивание : Разделение по промежуткамПродолжительность промежутка : 40 мс. (1,00 видеокадр)Время предзагрузки промежутка : 500 мс.Язык : EstonianServiceKind/String : Complete Main

Аудио #2Идентификатор : 2Формат : AC-3Формат/Информация : Audio Coding 3Параметр Endianness формата : BigИдентификатор кодека : 2000Продолжительность : 1 ч. 25 м.Вид битрейта : ПостоянныйБитрейт : 256 Кбит/секКаналы : 2 каналаРасположение каналов : Front: L RЧастота : 48,0 КГцЧастота кадров : 31,250 кадров/сек (1536 spf)Битовая глубина : 16 битМетод сжатия : С потерямиРазмер потока : 156 Мбайт (10%)Выравнивание : Разделение по промежуткамПродолжительность промежутка : 40 мс. (1,00 видеокадр)Время предзагрузки промежутка : 500 мс.ServiceKind/String : Complete Main


Трекер:  [ 28-Апр-2018 06:54 ]

  

Скачать .torrent

Размер .torrent файла 15 KB


Размер: 1.52 GB
Хэш (hash) релиза: 41e76d77f2e91fcb9991344bb8ebfd97673d8978
Подписка на обновления:

Еще никто не оставлял запись к записи скачать торрент Овечка в правом нижнем углу Загадочная овца . Будь первым!

!Обратная связь